Вампирские войны / V-Wars (Сезон 1 , Серия 1-10 из 10) ( Брэд Тёрнер, Т.Дж. Скотт, Иэн Сомерхолдер) [2019,Ужасы, фантастика, драма,WEB-DLRip 1080p] [LostFilm+Невафильм+ENG]+[Subs Rus , ENG]

Ответить на тему
 
Автор Сообщение

Nikolai.Baranov ®

Пост Пост: #1 от 20-Дек-2019 11:19

[Цитировать]

-- --Вампирские войны / V-Wars Сезон 1 , Серия 1-10 из 10 - Полный Комплект-- --Год выпуска: 2019
Выпущено: Канада, High Park Entertainment, IDW Entertainment, NetFlix
Жанр: Ужасы, фантастика, драма
Продолжительность: 01:00:00
Сезон: 1
Серия:1-10
Количество серий в сезоне:10--Озвучка #1: профессиональный (дублированный) - Невафильм - Русский
Озвучка #2: Профессиональный многоголосый - Lostfilm - Русский
Озвучка #3: Профессиональный многоголосый -Английский - Оригинал
Субтитры: Russian , English , English SDH
--Релиз Без Рекламы --MDB 6.2 --Режиссеры:
Брэд Тёрнер, Т.Дж. Скотт, Иэн Сомерхолдер--В ролях: : Иэн Сомерхолдер, Кайл Харрисон Брейткопф, Адриан Холмс, Джеки Лаи, Питер Аутербридж, Кимберли-Сью Мюррэй, Майкл Грейес, Сидни Мейер, Лора Вандервурт-- В центре истории, рассказанной авторами сериала «Вампирские войны», оказывается опытный доктор по имени Лютер Суонн. Он становится свидетелем появления неизвестного вируса, распространяющегося по миру из-за резких климатических изменений и таяния огромных ледников. Эта загадочная болезнь превращает Майкла Фейна, его близкого и давнего друга, в настоящего хищника, который может питаться исключительно человеческой кровью. Майкл теряет контроль над собой каждый раз, когда начинает испытывать голод. Вскоре Лютер замечает, что болезнь распространяется очень быстро. Каждый день все больше и больше людей проходят эти странные трансформации. Из-за этого общество распадается на враждующие друг с другом лагеря. Обычные люди бросают вызов вампирам, однако количество кровопийц растет так быстро, что у людей нет шанса победить в этой войне. Лютер пытается понять, как остановить болезнь. А в это время Майкл начинает свой путь лидера подпольной организации вампиров.-- --Качество :WEB-DLRip - 1080p
Формат: MKV
Видео кодек: H264
Видео: 3480Кбит/сек,1920х1080(16.9),в 23.976кадр/сек, AVC (Main@L4)(CABAC/3 Ref Frames)--Аудио Кодек:AC3
Аудио #1:MVO LostFilm @DD5.1 AC3, 640 Kbps, 48.0 KHz, 6 ch- Lostfilm -Русский
Аудио #2:DUB Невафильм @DD5.1 AC3, 640 Kbps, 48.0 KHz, 6 ch-Невафильм -Русский
Аудио #8: Original@DD5.1 E-AC3 ,768 Kbps, 48.0 KHz, 6 ch - English - Оригинал--

Доп. информация:

Звуковая дорожка сделана путем наложения чистого голоса озвучивателей на центральный канал оригинальной дорожки. Качество идентично звуковой дорожке.
--

Список эпизодов сезона


1 сезон 1 серия - Сражённый болезнью - Down with the Sickness
1 сезон 2 серия - Братья по крови - Blood Brothers
1 сезон 3 серия - Я к смерти ехать не стремилась - Because I Could Not Stop for Death
1 сезон 4 серия - Не лучше, чем я - Bad as Me
1 сезон 5 серия - Холодная земля - Cold Cold Ground
1 сезон 6 серия - Недостаточно просто жить - It's Not Enough to Have Lived
1 сезон 7 серия - Ночь сгущается вокруг меня - The Night Is Darkening Round Me
1 сезон 8 серия - Кровавый дождь - Red Rain
1 сезон 9 серия - Соблазн гена хищника - The Junkie Run of the Predator Gene
1 сезон 10 серия - Сражён, но не сломлен - Bloody but Unbow'd
--

MediaInfo сезона

Общее
Уникальный идентификатор : 266345269025520532045216156942368015760 (0xC8603BA0659B05AC240EED4006A88590)
Полное имя : E:\Nikolai.Baranov & PIRATIYA\Вампирские войны - V-Wars\V-Wars_2019_S01_Н264_DD5.1_N.B_HD_1080_DUB+LostFilm _Eng\V-Wars_2019_S01E01_Н264_DD5.1_N.B_HD_1080_DUB+LostFilm _Eng.mkv
Формат : Matroska
Версия формата : Version 4
Размер файла : 2,13 Гбайт
Продолжительность : 56 м. 32 с.
Режим общего битрейта : Переменный
Общий поток : 5402 Кбит/сек
Название фильма : V-Wars 2019 S01E01 @ Nikolai.Baranov & PIRATIYA
Дата кодирования : UTC 2019-12-18 08:35:22
Программа кодирования : mkvmerge v41.0.0 ('Smarra') 64-bit
Библиотека кодирования : libebml v1.3.9 + libmatroska v1.5.2 / Lavf58.20.100
Обложка : Yes
Attachments : cover.jpg
Видео
Идентификатор : 1
Формат : AVC
Формат/Информация : Advanced Video Codec
Профиль формата : Main@L4
Настройки формата : CABAC / 3 Ref Frames
Параметр CABAC формата : Да
Параметр RefFrames формата : 3 кадра
Идентификатор кодека : V_MPEG4/ISO/AVC
Продолжительность : 56 м. 31 с.
Вид битрейта : Переменный
Битрейт : 3480 Кбит/сек
Максимальный битрейт : 5220 Кбит/сек
Ширина : 1920 пикселей
Высота : 1080 пикселей
Соотношение сторон : 16:9
Режим частоты кадров : Постоянный
Частота кадров : 23,976 (24000/1001) кадра/сек
Цветовое пространство : YUV
Субдискретизация насыщенности : 4:2:0
Битовая глубина : 8 бит
Тип развёртки : Прогрессивная
Бит/(Пиксели*Кадры) : 0.070
Размер потока : 1,32 Гбайт (62%)
Заголовок : V-Wars_2019_S01E01_Н264_DD5.1_N.B_HD_1080_DUB+LostFilm _Eng
Библиотека кодирования : x264 core 148 r2715 7e75228
Настройки программы : cabac=1 / ref=3 / deblock=1:0:0 / analyse=0x1:0x111 / me=umh / subme=10 / psy=1 / psy_rd=1.00:0.00 / mixed_ref=1 / me_range=24 / chroma_me=1 / trellis=2 / 8x8dct=0 / cqm=0 / deadzone=21,11 / fast_pskip=1 / chroma_qp_offset=-2 / threads=8 / lookahead_threads=1 / sliced_threads=0 / nr=0 / decimate=1 / interlaced=0 / bluray_compat=0 / stitchable=1 / constrained_intra=0 / bframes=2 / b_pyramid=0 / b_adapt=2 / b_bias=0 / direct=3 / weightb=1 / open_gop=0 / weightp=2 / keyint=250 / keyint_min=23 / scenecut=0 / intra_refresh=0 / rc_lookahead=48 / rc=2pass / mbtree=1 / bitrate=3480 / ratetol=1.0 / qcomp=0.50 / qpmin=6 / qpmax=51 / qpstep=4 / cplxblur=20.0 / qblur=0.5 / vbv_maxrate=5220 / vbv_bufsize=6960 / nal_hrd=vbr / filler=0 / ip_ratio=1.40 / aq=1:1.00
Язык : Russian
Default : Да
Forced : Нет
Аудио #1
Идентификатор : 4
Формат : AC-3
Формат/Информация : Audio Coding 3
Коммерческое название : Dolby Digital
Идентификатор кодека : A_AC3
Продолжительность : 56 м. 32 с.
Вид битрейта : Постоянный
Битрейт : 640 Кбит/сек
Каналы : 6 каналов
ChannelLayout : L R C LFE Ls Rs
Частота : 48,0 КГц
Частота кадров : 31,250 кадров/сек (1536 SPF)
Метод сжатия : С потерями
Задержка видео : -42 мс.
Размер потока : 259 Мбайт (12%)
Заголовок : DUB Невафильм @DD5.1 AC3, 640 Kbps, 48.0 KHz, 6 ch
Язык : Russian
ServiceKind/String : Complete Main
Default : Да
Forced : Нет
Аудио #2
Идентификатор : 5
Формат : AC-3
Формат/Информация : Audio Coding 3
Коммерческое название : Dolby Digital
Идентификатор кодека : A_AC3
Продолжительность : 56 м. 30 с.
Вид битрейта : Постоянный
Битрейт : 640 Кбит/сек
Каналы : 6 каналов
ChannelLayout : L R C LFE Ls Rs
Частота : 48,0 КГц
Частота кадров : 31,250 кадров/сек (1536 SPF)
Метод сжатия : С потерями
Задержка видео : -42 мс.
Размер потока : 259 Мбайт (12%)
Заголовок : MVO LostFilm @DD5.1 AC3, 640 Kbps, 48.0 KHz, 6 ch
Язык : Russian
ServiceKind/String : Complete Main
Default : Нет
Forced : Нет
Аудио #3
Идентификатор : 8
Формат : E-AC-3 JOC
Формат/Информация : Enhanced AC-3 with Joint Object Coding
Коммерческое название : Dolby Digital Plus with Dolby Atmos
Идентификатор кодека : A_EAC3
Продолжительность : 56 м. 31 с.
Вид битрейта : Постоянный
Битрейт : 768 Кбит/сек
Каналы : 6 каналов
ChannelLayout : L R C LFE Ls Rs
Частота : 48,0 КГц
Частота кадров : 31,250 кадров/сек (1536 SPF)
Метод сжатия : С потерями
Задержка видео : -42 мс.
Размер потока : 311 Мбайт (14%)
Заголовок : Original@DD5.1 E-AC3 ,768 Kbps, 48.0 KHz, 6 ch
Язык : English
ServiceKind/String : Complete Main
Default : Нет
Forced : Нет
ComplexityIndex : 16
NumberOfDynamicObjects : 15
BedChannelCount/String : 1 канал
BedChannelConfiguration : LFE
Текст #1
Идентификатор : 2
Формат : UTF-8
Идентификатор кодека : S_TEXT/UTF8
Идентификатор кодека/Информация : UTF-8 Plain Text
Продолжительность : 55 м. 23 с.
Битрейт : 2 бит/сек
ElementCount : 21
Размер потока : 1,02 Кбайт (0%)
Заголовок : Сражённый болезнью-Russian-Forced
Язык : Russian
Default : Да
Forced : Нет
Текст #2
Идентификатор : 3
Формат : UTF-8
Идентификатор кодека : S_TEXT/UTF8
Идентификатор кодека/Информация : UTF-8 Plain Text
Продолжительность : 55 м. 23 с.
Битрейт : 74 бит/сек
ElementCount : 741
Размер потока : 30,2 Кбайт (0%)
Заголовок : Сражённый болезнью-Russian
Язык : Russian
Default : Нет
Forced : Нет
Текст #3
Идентификатор : 6
Формат : UTF-8
Идентификатор кодека : S_TEXT/UTF8
Идентификатор кодека/Информация : UTF-8 Plain Text
Продолжительность : 55 м. 23 с.
Битрейт : 74 бит/сек
ElementCount : 741
Размер потока : 30,2 Кбайт (0%)
Заголовок : with the Sickness-Original - SDH
Язык : English
Default : Нет
Forced : Нет
Текст #4
Идентификатор : 7
Формат : UTF-8
Идентификатор кодека : S_TEXT/UTF8
Идентификатор кодека/Информация : UTF-8 Plain Text
Продолжительность : 51 м. 6 с.
Битрейт : 56 бит/сек
ElementCount : 761
Размер потока : 21,2 Кбайт (0%)
Заголовок : with the Sickness-Original
Язык : English
Default : Нет
Forced : Нет
Меню
00:00:00.042 : ru:Chapter 01 / ru:Chapter 01 / ru:Chapter 01 / ru:Chapter 01 / ru:Chapter 01 / ru:Chapter 01 / ru:Chapter 01 / ru:Chapter 01
--

Скриншоты

-- --

Как закачать отдельный файл

1. Открыть торрент
2. Снять галки с тех файлов торрента, которые мы не хотим закачивать. Оставляем только на нужных нам файлах (файле).
3. Нажать О.К.
В клиенте utorrent
Инструкция
1) Открыть торрент

2) Снять галки с тех файлов торрента, которые мы не хотим закачивать:
* либо вручную, снимая с каждого файла галку( скрин №1)
* либо, нажав кнопку "Снять метки (Select None)", сняв сразу со всех файлов(скрин №2)
№1

№2

Оставляем только на нужных нам файлах (файле).

3)Нажать О.К
-- -- --Внимание!!! 06.01. 2020. РАЗДАЧА ОБНОВЛЕНА. ДОБАВЛЕНА -10- СЕРИЯ ФИНАЛ СЕЗОНА. ОБНОВИТЕ ТОРЕНТ ФАЙЛ. ПРИЯТНОГО ПРОСМОТРА . Поблагодарить:
ЯД: 410017546713876
--Релиз от: Nikolai.Baranov & PIRATIYA -- -- -- --Время раздачи : 24/7---
Скачать

Скачать торрент! Вампирские войны / V-Wars (Сезон 1 , Серия 1-10 из 10) ( Брэд Тёрнер, Т.Дж. Скотт, Иэн Сомерхолдер) [2019,Ужасы, фантастика, драма,WEB-DLRip 1080p] [LostFilm+Невафильм+ENG]+[Subs Rus , ENG]

Как скачивать? · Что такое торрент? · Рейтинг и ограничения

Сайт не распространяет и не хранит электронные версии произведений, а лишь предоставляет доступ к создаваемому пользователями каталогу ссылок на торрент-файлы, которые содержат только списки хеш-сумм

 
Показать сообщения:    
Ответить на тему

Текущее время: Сегодня 00:17

Часовой пояс: GMT + 4



Вы не можете начинать темы
Вы не можете отвечать на сообщения
Вы не можете редактировать свои сообщения
Вы не можете удалять свои сообщения
Вы не можете голосовать в опросах
Вы не можете прикреплять файлы к сообщениям
Вы не можете скачивать файлы