Золото Флинна / In Like Flynn (2018) WEB-DL 1080p от селезень | iTunes

Ответить на тему
 
Автор Сообщение

Magnat ®

Пол:

Стаж: 5 лет 3 месяца

Сообщений: 420

Откуда: xxxtorrents.pro

Пост Пост: #1 от 11-Май-2019 21:31

[Цитировать]

Золото Флинна / In Like Flynn- Оригинальное название: In Like Flynn
Год выхода: 2018
Жанр: Боевик, приключения
Режиссер: Расселл Малкэй
В ролях: Томас Кокерел, Кори Лардж, Уильям Моусли, Клайв Стэнден, Дэвид Уэнэм, Дэн Фоглер, Дэвид Хеннесси, Изабель Лукас, Каллэн Мулвей, Костас Мэндилор-История невероятной, полной захватывающих приключений жизни легенды Голливуда - Эррола Флинна. Его скандальная слава распространилась далеко за пределами кинематографа: авантюрист, золотоискатель, сердцеед, звезда. Однако именно эти опасные приключения и выковали героя, которого так полюбил весь мир!
Страна: Австралия, Канада
Студия: 308 Ent, ILF AU Productions
Продолжительность: 01:38:36
Перевод: Дублированный | iTunes
Качество: WEB-DL 1080p
Видео: MPEG-4 AVC, 1920x872, 8581 Kbit/s, 23.976 fps
Звук:
Аудио #01: 48 kHz, AC3, 5.1, 384 Kbps | iTunes | RUS |
Аудио #02: 48 kHz, E-AC3, 5.1, 640 Kbps | Оригинал | ENG |
Субтитры: Русские (Full), английские

MI

General
Unique ID : 331242886798363801777333398976067895517 (0xF9330F3871C7C60E5C1E2CAACD2580DD)
Complete name : D:Video111In.Like.Flynn.2019.AMZN.WEB-DL.1080p.seleZen.mkv
Format : Matroska
Format version : Version 4
File size : 6.61 GiB
Duration : 1 h 38 min
Overall bit rate : 9 603 kb/s
Movie name : In Like Flynn 2019 from селезень
Encoded date : UTC 2019-04-28 16:34:07
Writing application : mkvmerge v32.0.0 ('Astral Progressions') 64-bit
Writing library : libebml v1.3.7 + libmatroska v1.5.0
Video
ID : 1
Format : AVC
Format/Info : Advanced Video Codec
Format profile : High@L4
Format settings : CABAC / 4 Ref Frames
Format settings, CABAC : Yes
Format settings, Reference : 4 frames
Codec ID : V_MPEG4/ISO/AVC
Duration : 1 h 38 min
Bit rate mode : Constant
Bit rate : 8 581 kb/s
Nominal bit rate : 10 000 kb/s
Width : 1 920 pixels
Height : 872 pixels
Display aspect ratio : 2.2:1
Original display aspect rat : 2.2:1
Frame rate mode : Constant
Frame rate : 23.976 (24000/1001) FPS
Color space : YUV
Chroma subsampling : 4:2:0
Bit depth : 8 bits
Scan type : Progressive
Bits/(Pixel*Frame) : 0.214
Stream size : 5.91 GiB (89%)
Language : English
Default : Yes
Forced : No
Color range : Limited
Color primaries : BT.709
Transfer characteristics : BT.709
Matrix coefficients : BT.709
Audio #1
ID : 2
Format : AC-3
Format/Info : Audio Coding 3
Commercial name : Dolby Digital
Codec ID : A_AC3
Duration : 1 h 38 min
Bit rate mode : Constant
Bit rate : 384 kb/s
Channel(s) : 6 channels
Channel layout : L R C LFE Ls Rs
Sampling rate : 48.0 kHz
Frame rate : 31.250 FPS (1536 SPF)
Bit depth : 16 bits
Compression mode : Lossy
Stream size : 271 MiB (4%)
Title : iTunes
Language : Russian
Service kind : Complete Main
Default : Yes
Forced : Yes
Audio #2
ID : 3
Format : E-AC-3
Format/Info : Enhanced AC-3
Commercial name : Dolby Digital Plus
Codec ID : A_EAC3
Duration : 1 h 38 min
Bit rate mode : Constant
Bit rate : 640 kb/s
Channel(s) : 6 channels
Channel layout : L R C LFE Ls Rs
Sampling rate : 48.0 kHz
Frame rate : 31.250 FPS (1536 SPF)
Compression mode : Lossy
Stream size : 451 MiB (7%)
Title : Original
Language : English
Service kind : Complete Main
Default : No
Forced : No
Text #1
ID : 4
Format : UTF-8
Codec ID : S_TEXT/UTF8
Codec ID/Info : UTF-8 Plain Text
Duration : 1 h 32 min
Bit rate : 78 b/s
Count of elements : 898
Stream size : 53.0 KiB (0%)
Title : Full
Language : Russian
Default : No
Forced : No
Text #2
ID : 5
Format : UTF-8
Codec ID : S_TEXT/UTF8
Codec ID/Info : UTF-8 Plain Text
Duration : 1 h 30 min
Bit rate : 48 b/s
Count of elements : 1247
Stream size : 32.1 KiB (0%)
Title : SDH
Language : English
Default : No
Forced : No
Menu
00:00:00.000 : en:1
00:07:43.254 : en:2
00:16:02.086 : en:3
00:21:17.067 : en:4
00:24:22.460 : en:5
00:28:45.890 : en:6
00:32:35.661 : en:7
00:37:16.817 : en:8
00:42:03.812 : en:9
00:45:36.107 : en:10
00:48:38.664 : en:11
00:54:28.347 : en:12
01:00:37.340 : en:13
01:06:25.312 : en:14
01:13:20.518 : en:15
01:17:48.077 : en:16
01:21:32.760 : en:17
01:27:37.082 : en:18
01:33:03.992 : en:19
01:35:06.698 : en:20
Скачать

Скачать торрент! Золото Флинна / In Like Flynn (2018) WEB-DL 1080p от селезень | iTunes

Как скачивать? · Что такое торрент? · Рейтинг и ограничения

Сайт не распространяет и не хранит электронные версии произведений, а лишь предоставляет доступ к создаваемому пользователями каталогу ссылок на торрент-файлы, которые содержат только списки хеш-сумм

загрузка...

_________________
ПУСТЬ ВАС НЕ СМУЩАЕТ ОТСУТСТВИЕ СИДОВ НА МОИХ РАЗДАЧАХ, РАЗДАЧИ МУЛЬТИТРЕКЕРНЫЕ СИДЫ (Раздающие) по DHT ЕСТЬ ВСЕГДА !!!!
[Профиль] [ЛС]
Показать сообщения:    
Ответить на тему

Текущее время: Сегодня 01:38

Часовой пояс: GMT + 4



Вы не можете начинать темы
Вы не можете отвечать на сообщения
Вы не можете редактировать свои сообщения
Вы не можете удалять свои сообщения
Вы не можете голосовать в опросах
Вы не можете прикреплять файлы к сообщениям
Вы не можете скачивать файлы