Стальная страна / Steel Country (2018) WEB-DL [H.264/1080p-LQ] [MVO]

Ответить на тему
 
Автор Сообщение

Magnat ®

Пол:

Стаж: 5 лет 3 месяца

Сообщений: 420

Откуда: xxxtorrents.pro

Пост Пост: #1 от 11-Май-2019 21:25

[Цитировать]

Стальная страна / Steel Country- Производство: Великобритания / Bedlam Productions, Zero Gravity Management
Жанр: Триллер, детектив
Режиссер: Саймон Феллоуз
Актеры: Эндрю Скотт, Денис Гоф, Дж.Д. Эвермор, Катрин Дайер, Брона Во, Грифф Ферст, Сандра Эллис Лэфферти, Кристиан Финлейсон, Джаред Банкенс, Кори Скотт Аллен-Когда мальчик пропадает без вести на окраине сонного городка в штатах,
местный мусорщик Дональд решает разобраться с этим делом сам.
Возраст: 18+ (зрителям, достигшим 18 лет. запрещено для детей)
Дата мировой премьеры: 24 июня 2018
Продолжительность: 01:29:38
Качество видео: WEB-DL
Перевод: Многоголосый закадровый, профессиональный (HDrezka Studio)
Субтитры: Английские
Видео: AVC/H.264, 1912x800, ~4596 Kbps
Аудио #1: AC3, 2 ch, 256 Kbps - Русский
Аудио #2: AC3, 6 ch, 384 Kbps - Английский

MediaInfo:

Общее
Уникальный идентификатор : 180459057460221706713837988472662218118 (0x87C32676C64035C0B8BF9A0BBEAB5586)
Полное имя : C:\XX\Стальная страна\Steel Country 2018 WEB-DL 1080p-LQ.mkv
Формат : Matroska
Версия формата : Version 2
Размер файла : 3,28 Гбайт
Продолжительность : 1 ч. 29 м.
Общий поток : 5340 Кбит/сек
Название фильма : A Dark Place 2018 from ExKinoRay
Дата кодирования : UTC 2019-05-10 17:48:56
Программа кодирования : mkvmerge v5.6.0 ('Kenya Kane') built on May 27 2012 16:44:04
Библиотека кодирования : libebml v1.2.3 + libmatroska v1.3.0
Видео
Идентификатор : 1
Формат : AVC
Формат/Информация : Advanced Video Codec
Профиль формата : High@L4
Настройки формата : CABAC / 5 Ref Frames
Параметр CABAC формата : Да
Параметр RefFrames формата : 5 кадров
Идентификатор кодека : V_MPEG4/ISO/AVC
Продолжительность : 1 ч. 29 м.
Битрейт : 4596 Кбит/сек
Ширина : 1912 пикселей
Высота : 800 пикселей
Соотношение сторон : 2,40:1
Режим частоты кадров : Постоянный
Частота кадров : 23,976 (24000/1001) кадра/сек
Цветовое пространство : YUV
Субдискретизация насыщенности : 4:2:0
Битовая глубина : 8 бит
Тип развёртки : Прогрессивная
Бит/(Пиксели*Кадры) : 0.123
Размер потока : 2,82 Гбайт (86%)
Заголовок : A.Dark.Place.2018.1080p
Язык : English
Default : Да
Forced : Нет
Цветовой диапазон : Limited
Основные цвета : BT.709
Характеристики трансфера : BT.709
Коэффициенты матрицы : BT.709
Аудио #1
Идентификатор : 2
Формат : AC-3
Формат/Информация : Audio Coding 3
Коммерческое название : Dolby Digital
Идентификатор кодека : A_AC3
Продолжительность : 1 ч. 29 м.
Вид битрейта : Постоянный
Битрейт : 256 Кбит/сек
Каналы : 2 канала
Channel layout : L R
Частота : 48,0 КГц
Частота кадров : 31,250 кадров/сек (1536 SPF)
Битовая глубина : 16 бит
Метод сжатия : С потерями
Задержка видео : -42 мс.
Размер потока : 164 Мбайт (5%)
Заголовок : MVO
Язык : Russian
ServiceKind/String : Complete Main
Default : Да
Forced : Нет
Аудио #2
Идентификатор : 3
Формат : AC-3
Формат/Информация : Audio Coding 3
Коммерческое название : Dolby Digital
Идентификатор кодека : A_AC3
Продолжительность : 1 ч. 29 м.
Вид битрейта : Постоянный
Битрейт : 384 Кбит/сек
Каналы : 6 каналов
Channel layout : L R C LFE Ls Rs
Частота : 48,0 КГц
Частота кадров : 31,250 кадров/сек (1536 SPF)
Битовая глубина : 16 бит
Метод сжатия : С потерями
Задержка видео : -42 мс.
Размер потока : 246 Мбайт (7%)
Язык : English
ServiceKind/String : Complete Main
Default : Нет
Forced : Нет
Текст
Идентификатор : 4
Формат : UTF-8
Идентификатор кодека : S_TEXT/UTF8
Идентификатор кодека/Информация : UTF-8 Plain Text
Язык : English
Default : Нет
Forced : Нет
Меню
00:00:00.000 : en:1
00:10:23.665 : en:2
00:19:45.226 : en:3
00:30:52.768 : en:4
00:38:53.915 : en:5
00:49:20.166 : en:6
00:58:21.999 : en:7
01:07:35.677 : en:8
01:14:24.001 : en:9
01:25:37.215 : en:10
Скриншоты:
Скачать

Скачать торрент! Стальная страна / Steel Country (2018) WEB-DL [H.264/1080p-LQ] [MVO]

Как скачивать? · Что такое торрент? · Рейтинг и ограничения

Сайт не распространяет и не хранит электронные версии произведений, а лишь предоставляет доступ к создаваемому пользователями каталогу ссылок на торрент-файлы, которые содержат только списки хеш-сумм

загрузка...

_________________
ПУСТЬ ВАС НЕ СМУЩАЕТ ОТСУТСТВИЕ СИДОВ НА МОИХ РАЗДАЧАХ, РАЗДАЧИ МУЛЬТИТРЕКЕРНЫЕ СИДЫ (Раздающие) по DHT ЕСТЬ ВСЕГДА !!!!
[Профиль] [ЛС]
Показать сообщения:    
Ответить на тему

Текущее время: Сегодня 22:46

Часовой пояс: GMT + 4



Вы не можете начинать темы
Вы не можете отвечать на сообщения
Вы не можете редактировать свои сообщения
Вы не можете удалять свои сообщения
Вы не можете голосовать в опросах
Вы не можете прикреплять файлы к сообщениям
Вы не можете скачивать файлы