Чрево кита / The Belly of the Whale (2018) WEB-DL 1080p | HDRezka Studio

Ответить на тему
 
Автор Сообщение

Magnat ®

Пол:

Стаж: 5 лет 3 месяца

Сообщений: 420

Откуда: xxxtorrents.pro

Пост Пост: #1 от 11-Май-2019 21:21

[Цитировать]

Чрево кита / The Belly of the Whale- Оригинальное название: The Belly of the Whale
Год выпуска: 2018
Жанр: Драма, криминал
Режиссер: Морган Буш
В ролях: Арт Паркинсон, Майкл Смайли, Льюис МакДугалл, Питер Кунан, Пэт Шорт, Лорен Кинселла, Марк Кельвин Райан, Ронан Грэм, Дэйл Лидон Болджер, Сиан Галлахер-Джои — неблагополучный подросток, который возвращается в родной провинциальный городок, чтобы восстановить трейлер-парк, принадлежащий его семье. Но из-за темного прошлого парень с первых же дней сталкивается с презрительным отношением местных жителей, считающих, что именно он убил своего отца. Судьба неожиданно сводит его с Рональдом — уже немолодым мужчиной, считающим себя полным неудачником, последним "достижением" которого стала проваленная сделка по продаже детских игрушек. Так получается, что Джои случайно сжигает фургон Рональда, остановившегося на ночевку в его парке. Видя его страдания, связанные с потерей последней возможности помочь тяжело больной жене, парень решает помочь своему первому и единственному постояльцу раздобыть необходимую сумму.
Выпущено: Ирландия, Fastnet Films, Nukleus film, Studio Virc
Продолжительность: 01:26:19
Перевод: Профессиональный (многоголосый, закадровый) | HDRezka Studio
Качество: WEB-DL 1080p
Контейнер: MKV
Видео: MPEG-4 AVC, 4561 Кбит/с, 1916х800
Аудио 1: Русский: AC3, 2 ch, 192 Кбит/с - HDRezka Studio
Аудио 2: Английский: AC3, 6 ch, 384 Кбит/с - Original
Субтитры: Нет

Скриншоты


MediaInfo

General
Unique ID : 132097245081296060038200111777017150062 (0x636101055001E5A1C7A583E5AED2BA6E)
Complete name : G:The.Belly.of.the.Whale.2018.WEB-DL.1080p.mkv
Format : Matroska
Format version : Version 4 / Version 2
File size : 3.10 GiB
Duration : 1 h 26 min
Overall bit rate : 5 140 kb/s
Encoded date : UTC 2019-04-16 09:13:54
Writing application : mkvmerge v20.0.0 ('I Am The Sun') 64-bit
Writing library : libebml v1.3.5 + libmatroska v1.4.8
Video
ID : 1
Format : AVC
Format/Info : Advanced Video Codec
Format profile : High@L4
Format settings : CABAC / 5 Ref Frames
Format settings, CABAC : Yes
Format settings, RefFrames : 5 frames
Codec ID : V_MPEG4/ISO/AVC
Duration : 1 h 26 min
Bit rate : 4 561 kb/s
Width : 1 916 pixels
Height : 800 pixels
Display aspect ratio : 2.40:1
Frame rate mode : Constant
Frame rate : 24.000 FPS
Color space : YUV
Chroma subsampling : 4:2:0
Bit depth : 8 bits
Scan type : Progressive
Bits/(Pixel*Frame) : 0.124
Stream size : 2.75 GiB (89%)
Language : English
Default : Yes
Forced : No
Color range : Limited
Color primaries : BT.709
Transfer characteristics : BT.709
Matrix coefficients : BT.709
Audio #1
ID : 2
Format : AC-3
Format/Info : Audio Coding 3
Codec ID : A_AC3
Duration : 1 h 26 min
Bit rate mode : Constant
Bit rate : 192 kb/s
Channel(s) : 2 channels
Channel positions : Front: L R
Sampling rate : 48.0 kHz
Frame rate : 31.250 FPS (1536 SPF)
Bit depth : 16 bits
Compression mode : Lossy
Stream size : 119 MiB (4%)
Title : MVO HDRezka Studio
Language : Russian
Service kind : Complete Main
Default : Yes
Forced : No
Audio #2
ID : 3
Format : AC-3
Format/Info : Audio Coding 3
Codec ID : A_AC3
Duration : 1 h 26 min
Bit rate mode : Constant
Bit rate : 384 kb/s
Channel(s) : 6 channels
Channel positions : Front: L C R, Side: L R, LFE
Sampling rate : 48.0 kHz
Frame rate : 31.250 FPS (1536 SPF)
Bit depth : 16 bits
Compression mode : Lossy
Stream size : 237 MiB (7%)
Language : English
Service kind : Complete Main
Default : No
Forced : No
Menu
00:00:00.000 : en:Chapter 1
00:19:21.458 : en:Chapter 2
00:41:13.248 : en:Chapter 3
00:59:49.539 : en:Chapter 4
01:22:58.246 : en:Chapter 5
Скачать

Скачать торрент! Чрево кита / The Belly of the Whale (2018) WEB-DL 1080p | HDRezka Studio

Как скачивать? · Что такое торрент? · Рейтинг и ограничения

Сайт не распространяет и не хранит электронные версии произведений, а лишь предоставляет доступ к создаваемому пользователями каталогу ссылок на торрент-файлы, которые содержат только списки хеш-сумм

загрузка...

_________________
ПУСТЬ ВАС НЕ СМУЩАЕТ ОТСУТСТВИЕ СИДОВ НА МОИХ РАЗДАЧАХ, РАЗДАЧИ МУЛЬТИТРЕКЕРНЫЕ СИДЫ (Раздающие) по DHT ЕСТЬ ВСЕГДА !!!!
[Профиль] [ЛС]
Показать сообщения:    
Ответить на тему

Текущее время: Сегодня 14:11

Часовой пояс: GMT + 4



Вы не можете начинать темы
Вы не можете отвечать на сообщения
Вы не можете редактировать свои сообщения
Вы не можете удалять свои сообщения
Вы не можете голосовать в опросах
Вы не можете прикреплять файлы к сообщениям
Вы не можете скачивать файлы