Болотная икра / Bayou Caviar (2018) WEB-DL 1080p | HDRezka Studio

Ответить на тему
 
Автор Сообщение

Magnat ®

Пол:

Стаж: 5 лет 4 месяца

Сообщений: 420

Откуда: xxxtorrents.pro

Пост Пост: #1 от 11-Май-2019 21:18

[Цитировать]

Болотная икра / Bayou Caviar- Оригинальное название: Bayou Caviar
Год выхода: 2018
Жанр: Триллер, драма, криминал, детектив
Режиссер: Кьюба Гудинг мл.
В ролях: Кьюба Гудинг мл., Фамке Янссен, Ричард Дрейфусс, Лия Мари Джонсон, Грегг Белло, Кэтрин МакФи, Кен Лернер, Сэм Такур, Джеймс Моусес Блэк, Алекс Ковалев-Русский гангстер предлагает бывшему боксёру Родни помочь ему разобраться с приёмным сыном сообщника. Родни всего лишь требуется использовать видео, сделанное фотографом Ником. Но всё идет наперекосяк, и Родни оказывается в опасном мире секса, насилия и мести.
Страна: США
Студия: Brittany House Pictures, Detente613, Fireshoe Productions, Major Motion Pictures
Продолжительность: 01:51:03
Перевод: Профессиональный многоголосый | HDRezka Studio
Кодек: AVC
Качество: WEB-DL 1080p | Bayou.Caviar.2018.1080p.WEB-DL.DD5.1.H264-FGT
Видео: MPEG-4 AVC, 4530 Kбит/с, 1920x800, 23.976 кадр/с
Аудио #1: Русский (АС3, 2ch, 192 Кбит/с, 48.0 KHz) Профессиональный (многоголосый, закадровый) HDRezka Studio
Аудио #2: Английский (АС3, 6ch, 384 Кбит/с, 48.0 KHz)
Субтитры: Русские, английские
Трейлер

MediaInfo

Источник: Bayou.Caviar.2018.1080p.WEB-DL.DD5.1.H264-FGT
General
Unique ID : 213575321100641576100118380326196816210 (0xA0AD1C522E5E469782494AF4D76B2952)
Complete name : Bayou.Caviar.2018.WEB-DL.1080p.mkv
Format : Matroska
Format version : Version 4 / Version 2
File size : 3.96 GiB
Duration : 1 h 51 min
Overall bit rate : 5 107 kb/s
Encoded date : UTC 2019-04-29 17:52:12
Writing application : mkvmerge v7.1.0 ('Good Love') 64bit built on Jul 27 2014 13:06:55
Writing library : libebml v1.3.0 + libmatroska v1.4.1
Video
ID : 1
Format : AVC
Format/Info : Advanced Video Codec
Format profile : High@L4
Format settings, CABAC : Yes
Format settings, RefFrames : 5 frames
Codec ID : V_MPEG4/ISO/AVC
Duration : 1 h 51 min
Bit rate : 4 530 kb/s
Width : 1 920 pixels
Height : 800 pixels
Display aspect ratio : 2.40:1
Frame rate mode : Constant
Frame rate : 23.976 (24000/1001) FPS
Color space : YUV
Chroma subsampling : 4:2:0
Bit depth : 8 bits
Scan type : Progressive
Bits/(Pixel*Frame) : 0.123
Stream size : 3.51 GiB (89%)
Language : English
Default : Yes
Forced : No
Color range : Limited
Color primaries : BT.709
Transfer characteristics : BT.709
Matrix coefficients : BT.709
Audio #1
ID : 2
Format : AC-3
Format/Info : Audio Coding 3
Format settings, Endianness : Big
Codec ID : A_AC3
Duration : 1 h 51 min
Bit rate mode : Constant
Bit rate : 192 kb/s
Channel(s) : 2 channels
Channel positions : Front: L R
Sampling rate : 48.0 kHz
Frame rate : 31.250 FPS (1536 SPF)
Bit depth : 16 bits
Compression mode : Lossy
Stream size : 152 MiB (4%)
Title : MVO | HDRezka Studio
Language : Russian
Service kind : Complete Main
Default : Yes
Forced : No
Audio #2
ID : 3
Format : AC-3
Format/Info : Audio Coding 3
Format settings, Endianness : Big
Codec ID : A_AC3
Duration : 1 h 51 min
Bit rate mode : Constant
Bit rate : 384 kb/s
Channel(s) : 6 channels
Channel positions : Front: L C R, Side: L R, LFE
Sampling rate : 48.0 kHz
Frame rate : 31.250 FPS (1536 SPF)
Bit depth : 16 bits
Compression mode : Lossy
Stream size : 305 MiB (8%)
Language : English
Service kind : Complete Main
Default : No
Forced : No
Text #1
ID : 4
Format : UTF-8
Codec ID : S_TEXT/UTF8
Codec ID/Info : UTF-8 Plain Text
Duration : 1 h 46 min
Bit rate : 64 b/s
Count of elements : 1062
Stream size : 50.3 KiB (0%)
Language : Russian
Default : No
Forced : No
Text #2
ID : 5
Format : UTF-8
Codec ID : S_TEXT/UTF8
Codec ID/Info : UTF-8 Plain Text
Duration : 1 h 47 min
Bit rate : 52 b/s
Count of elements : 1233
Stream size : 41.3 KiB (0%)
Language : English
Default : No
Forced : No
Menu
00:00:00.000 : en:Chapter 1
00:09:55.011 : en:Chapter 2
00:21:30.414 : en:Chapter 3
00:30:50.014 : en:Chapter 4
00:42:41.809 : en:Chapter 5
00:51:28.001 : en:Chapter 6
01:00:00.096 : en:Chapter 7
01:10:08.370 : en:Chapter 8
01:20:07.552 : en:Chapter 9
01:31:14.343 : en:Chapter 10
01:43:26.575 : en:Chapter 11
01:47:19.141 : en:Chapter 12

Скриншоты

Скачать

Скачать торрент! Болотная икра / Bayou Caviar (2018) WEB-DL 1080p | HDRezka Studio

Как скачивать? · Что такое торрент? · Рейтинг и ограничения

Сайт не распространяет и не хранит электронные версии произведений, а лишь предоставляет доступ к создаваемому пользователями каталогу ссылок на торрент-файлы, которые содержат только списки хеш-сумм

загрузка...

_________________
ПУСТЬ ВАС НЕ СМУЩАЕТ ОТСУТСТВИЕ СИДОВ НА МОИХ РАЗДАЧАХ, РАЗДАЧИ МУЛЬТИТРЕКЕРНЫЕ СИДЫ (Раздающие) по DHT ЕСТЬ ВСЕГДА !!!!
[Профиль] [ЛС]
Показать сообщения:    
Ответить на тему

Текущее время: Сегодня 20:43

Часовой пояс: GMT + 4



Вы не можете начинать темы
Вы не можете отвечать на сообщения
Вы не можете редактировать свои сообщения
Вы не можете удалять свои сообщения
Вы не можете голосовать в опросах
Вы не можете прикреплять файлы к сообщениям
Вы не можете скачивать файлы