Лабиринты прошлого / Todos lo saben / Everybody Knows (2018) BDRip 1080p от селезень | iTunes

Ответить на тему
 
Автор Сообщение

Magnat ®

Пол:

Стаж: 5 лет 3 месяца

Сообщений: 420

Откуда: xxxtorrents.pro

Пост Пост: #1 от 11-Май-2019 21:15

[Цитировать]

Лабиринты прошлого / Todos lo saben / Everybody Knows- Оригинальное название: Todos lo saben / Everybody Knows
Год выхода: 2018
Жанр: Триллер, драма, криминал, детектив
Режиссер: Асгар Фархади
В ролях: Пенелопа Крус, Хавьер Бардем, Хайме Лорэнте, Барбара Ленни, Рикардо Дарин, Инма Куэста, Карла Кампра, Эльвира Мингес, Сара Саламо, Эдуард Фернандес-Испания, свадьба, друзья. Всего один день и неожиданное происшествие полностью меняет жизнь Лауры и Пако, некогда любивших друг друга. Им придется столкнуться лицом к лицу со своим прошлым, чтобы предотвратить непоправимое.
Страна: Испания, Франция, Италия
Студия: Memento Films Production, Morena Films, Lucky Red
Продолжительность: 02:13:39
Перевод: Дублированный | iTunes
Качество: BDRip 1080p
Видео: MPEG-4 AVC, 1920x1036, 16.1 Mbit/s, 23.976 fps
Звук:
Аудио #01: 48 kHz, AC3, 5.1, 384 Kbps | iTunes | RUS |
Аудио #02: 48 kHz, AC3, 5.1, 640 Kbps | Оригинал | SPA |
Субтитры: Английские

MI

General
Unique ID : 215744617439869063096334429904114330114 (0xA24EE6E35CE1824B3F58897400E0AA02)
Complete name : D:Video1111080Todos.lo.Saben.2018.BDRip.1080p.seleZen.mkv
Format : Matroska
Format version : Version 4
File size : 15.9 GiB
Duration : 2 h 13 min
Overall bit rate : 17.1 Mb/s
Movie name : Todos lo saben 2018 from селезень
Encoded date : UTC 2019-04-30 22:40:38
Writing application : mkvmerge v32.0.0 ('Astral Progressions') 64-bit
Writing library : libebml v1.3.7 + libmatroska v1.5.0
Video
ID : 1
Format : AVC
Format/Info : Advanced Video Codec
Format profile : High@L4.1
Format settings : CABAC / 4 Ref Frames
Format settings, CABAC : Yes
Format settings, Reference : 4 frames
Codec ID : V_MPEG4/ISO/AVC
Duration : 2 h 13 min
Bit rate : 16.1 Mb/s
Width : 1 920 pixels
Height : 1 036 pixels
Display aspect ratio : 1.85:1
Frame rate mode : Constant
Frame rate : 23.976 (24000/1001) FPS
Color space : YUV
Chroma subsampling : 4:2:0
Bit depth : 8 bits
Scan type : Progressive
Bits/(Pixel*Frame) : 0.337
Stream size : 15.0 GiB (94%)
Title : SPEED
Writing library : x264 core 157 r2867+103 0d6443f t_mod_Custom_2 [8-bit@all X86_64]
Encoding settings : cabac=1 / ref=4 / deblock=1:-3:-3 / analyse=0x3:0x133 / me=umh / subme=10 / psy=1 / fade_compensate=0.00 / psy_rd=1.03:0.00 / mixed_ref=1 / me_range=32 / chroma_me=1 / trellis=2 / 8x8dct=1 / cqm=0 / deadzone=21,11 / fast_pskip=0 / chroma_qp_offset=-2 / threads=12 / lookahead_threads=2 / sliced_threads=0 / nr=0 / decimate=0 / interlaced=0 / bluray_compat=0 / constrained_intra=0 / fgo=0 / bframes=9 / b_pyramid=2 / b_adapt=2 / b_bias=0 / direct=3 / weightb=1 / open_gop=0 / weightp=2 / keyint=250 / keyint_min=23 / scenecut=40 / intra_refresh=0 / rc=crf / mbtree=0 / crf=17.4000 / qcomp=0.60 / qpmin=0:0:0 / qpmax=69:69:69 / qpstep=4 / ip_ratio=1.35 / pb_ratio=1.25 / aq=3:0.85 / aq-sensitivity=10.00 / aq-factor=1.00:1.00:1.00 / aq2=0 / aq3=0 / zones=41406,41973,crf=16.2/43369,44845,crf=16/49403,51551,crf=16/51970,55031,crf=16.2/155774,158069,crf=16.4
Language : Spanish
Default : Yes
Forced : No
Audio #1
ID : 2
Format : AC-3
Format/Info : Audio Coding 3
Commercial name : Dolby Digital
Codec ID : A_AC3
Duration : 2 h 13 min
Bit rate mode : Constant
Bit rate : 384 kb/s
Channel(s) : 6 channels
Channel layout : L R C LFE Ls Rs
Sampling rate : 48.0 kHz
Frame rate : 31.250 FPS (1536 SPF)
Bit depth : 16 bits
Compression mode : Lossy
Stream size : 367 MiB (2%)
Title : iTunes
Language : Russian
Service kind : Complete Main
Default : Yes
Forced : Yes
Audio #2
ID : 3
Format : AC-3
Format/Info : Audio Coding 3
Commercial name : Dolby Digital
Codec ID : A_AC3
Duration : 2 h 13 min
Bit rate mode : Constant
Bit rate : 640 kb/s
Channel(s) : 6 channels
Channel layout : L R C LFE Ls Rs
Sampling rate : 48.0 kHz
Frame rate : 31.250 FPS (1536 SPF)
Bit depth : 16 bits
Compression mode : Lossy
Stream size : 612 MiB (4%)
Title : Original
Language : Spanish
Service kind : Complete Main
Default : No
Forced : No
Text
ID : 4
Format : UTF-8
Codec ID : S_TEXT/UTF8
Codec ID/Info : UTF-8 Plain Text
Duration : 2 h 5 min
Bit rate : 34 b/s
Count of elements : 1348
Stream size : 32.1 KiB (0%)
Title : Full
Language : English
Default : No
Forced : No
Menu
00:00:00.000 : :Chapter 1
00:09:34.365 : :Chapter 2
00:18:01.580 : :Chapter 3
00:22:43.112 : :Chapter 4
00:31:20.879 : :Chapter 5
00:39:42.964 : :Chapter 6
00:46:12.687 : :Chapter 7
00:51:41.598 : :Chapter 8
00:58:35.846 : :Chapter 9
01:06:25.648 : :Chapter 10
01:12:33.266 : :Chapter 11
01:19:43.237 : :Chapter 12
01:25:20.324 : :Chapter 13
01:28:53.119 : :Chapter 14
01:35:16.836 : :Chapter 15
01:41:09.772 : :Chapter 16
01:48:17.074 : :Chapter 17
01:54:32.783 : :Chapter 18
02:05:34.235 : :Chapter 19
02:09:25.091 : :Chapter 20
Скачать

Скачать торрент! Лабиринты прошлого / Todos lo saben / Everybody Knows (2018) BDRip 1080p от селезень | iTunes

Как скачивать? · Что такое торрент? · Рейтинг и ограничения

Сайт не распространяет и не хранит электронные версии произведений, а лишь предоставляет доступ к создаваемому пользователями каталогу ссылок на торрент-файлы, которые содержат только списки хеш-сумм

загрузка...

_________________
ПУСТЬ ВАС НЕ СМУЩАЕТ ОТСУТСТВИЕ СИДОВ НА МОИХ РАЗДАЧАХ, РАЗДАЧИ МУЛЬТИТРЕКЕРНЫЕ СИДЫ (Раздающие) по DHT ЕСТЬ ВСЕГДА !!!!
[Профиль] [ЛС]
Показать сообщения:    
Ответить на тему

Текущее время: Сегодня 06:35

Часовой пояс: GMT + 4



Вы не можете начинать темы
Вы не можете отвечать на сообщения
Вы не можете редактировать свои сообщения
Вы не можете удалять свои сообщения
Вы не можете голосовать в опросах
Вы не можете прикреплять файлы к сообщениям
Вы не можете скачивать файлы