Каждые двадцать одну секунду / Every 21 Seconds (2018) WEB-DL 1080p | HDRezka Studio

Ответить на тему
 
Автор Сообщение

Magnat ®

Пол:

Стаж: 5 лет 3 месяца

Сообщений: 420

Откуда: xxxtorrents.pro

Пост Пост: #1 от 11-Май-2019 20:50

[Цитировать]

Каждые двадцать одну секунду / Every 21 Seconds- Оригинальное название: Every 21 Seconds
Год выпуска: 2018
Жанр: Драма
Режиссер: Куба Лучкевич
В ролях: Шеннон Браун, Келли Тибо, Джим О'Хейр, Мэтт Прэтт, Робин Соффин, Джэми Бернадетт, Дельпано Виллис, Джимми Толливер, Шон Патрик Леонард, Брэндон К. Хэмптон-Основано на реальных событиях. Брайан Суини — муж и отец, подвергшийся жестокому нападению, в результате которого он получил серьёзную черепно-мозговую травму. Многие погибают после подобного повреждения, а те, кому повезло выжить, становятся совершенно другими людьми. С помощью инновационной восстановительной терапии и при поддержке любимой жены, семьи и друзей Брайану предстоит найти силы, чтобы справиться с последствиями травмы и вновь стать тем человеком, которым он был раньше.
Выпущено: США, Two 9 Productions, Road 28 Productions
Продолжительность: 02:00:29
Перевод: Профессиональный (многоголосый, закадровый) | HDRezka Studio
Качество: WEB-DL 1080p
Контейнер: MKV
Видео: MPEG-4 AVC, 5225 Кбит/с, 1908х1068
Аудио 1: Русский: AC3, 2 ch, 192 Кбит/с - HDRezka Studio
Аудио 2: Английский: AC3, 6 ch, 384 Кбит/с - Original
Субтитры: Английские

Скриншоты


MediaInfo

General
Unique ID : 37177587606448349044350701112411402001 (0x1BF824969C49CB9B6AA0E5D0B0EDAF11)
Complete name : G:Every.21.Seconds.2018.WEB-DL.1080p.mkv
Format : Matroska
Format version : Version 4 / Version 2
File size : 4.88 GiB
Duration : 2 h 0 min
Overall bit rate : 5 803 kb/s
Encoded date : UTC 2019-05-03 13:43:22
Writing application : mkvmerge v20.0.0 ('I Am The Sun') 64-bit
Writing library : libebml v1.3.5 + libmatroska v1.4.8
Video
ID : 1
Format : AVC
Format/Info : Advanced Video Codec
Format profile : High@L4
Format settings : CABAC / 4 Ref Frames
Format settings, CABAC : Yes
Format settings, RefFrames : 4 frames
Codec ID : V_MPEG4/ISO/AVC
Duration : 2 h 0 min
Bit rate : 5 225 kb/s
Width : 1 908 pixels
Height : 1 068 pixels
Display aspect ratio : 16:9
Frame rate mode : Constant
Frame rate : 23.976 (24000/1001) FPS
Color space : YUV
Chroma subsampling : 4:2:0
Bit depth : 8 bits
Scan type : Progressive
Bits/(Pixel*Frame) : 0.107
Stream size : 4.40 GiB (90%)
Language : English
Default : Yes
Forced : No
Color range : Limited
Color primaries : BT.709
Transfer characteristics : BT.709
Matrix coefficients : BT.709
Audio #1
ID : 2
Format : AC-3
Format/Info : Audio Coding 3
Codec ID : A_AC3
Duration : 2 h 0 min
Bit rate mode : Constant
Bit rate : 192 kb/s
Channel(s) : 2 channels
Channel positions : Front: L R
Sampling rate : 48.0 kHz
Frame rate : 31.250 FPS (1536 SPF)
Bit depth : 16 bits
Compression mode : Lossy
Stream size : 165 MiB (3%)
Title : MVO, HDRezka Studio
Language : Russian
Service kind : Complete Main
Default : Yes
Forced : No
Audio #2
ID : 3
Format : AC-3
Format/Info : Audio Coding 3
Codec ID : A_AC3
Duration : 2 h 0 min
Bit rate mode : Constant
Bit rate : 384 kb/s
Channel(s) : 6 channels
Channel positions : Front: L C R, Side: L R, LFE
Sampling rate : 48.0 kHz
Frame rate : 31.250 FPS (1536 SPF)
Bit depth : 16 bits
Compression mode : Lossy
Stream size : 331 MiB (7%)
Language : English
Service kind : Complete Main
Default : No
Forced : No
Text
ID : 4
Format : UTF-8
Codec ID : S_TEXT/UTF8
Codec ID/Info : UTF-8 Plain Text
Duration : 1 h 59 min
Bit rate : 81 b/s
Count of elements : 1934
Stream size : 71.1 KiB (0%)
Language : English
Default : No
Forced : No
Menu
00:00:00.000 : en:1
00:02:58.000 : en:2
00:14:20.000 : en:3
00:23:49.000 : en:4
00:33:11.000 : en:5
00:43:02.000 : en:6
00:54:49.000 : en:7
01:03:56.000 : en:8
01:13:30.000 : en:9
01:23:34.000 : en:10
01:34:15.000 : en:11
01:46:34.000 : en:12
01:56:55.000 : en:13
Скачать

Скачать торрент! Каждые двадцать одну секунду / Every 21 Seconds (2018) WEB-DL 1080p | HDRezka Studio

Как скачивать? · Что такое торрент? · Рейтинг и ограничения

Сайт не распространяет и не хранит электронные версии произведений, а лишь предоставляет доступ к создаваемому пользователями каталогу ссылок на торрент-файлы, которые содержат только списки хеш-сумм

загрузка...

_________________
ПУСТЬ ВАС НЕ СМУЩАЕТ ОТСУТСТВИЕ СИДОВ НА МОИХ РАЗДАЧАХ, РАЗДАЧИ МУЛЬТИТРЕКЕРНЫЕ СИДЫ (Раздающие) по DHT ЕСТЬ ВСЕГДА !!!!
[Профиль] [ЛС]
Показать сообщения:    
Ответить на тему

Текущее время: Сегодня 19:54

Часовой пояс: GMT + 4



Вы не можете начинать темы
Вы не можете отвечать на сообщения
Вы не можете редактировать свои сообщения
Вы не можете удалять свои сообщения
Вы не можете голосовать в опросах
Вы не можете прикреплять файлы к сообщениям
Вы не можете скачивать файлы