Ковбои / Buffalo Boys (2018) WEB-DL [H.264/1080p-LQ] [MVO] [PR]

Ответить на тему
 
Автор Сообщение

Magnat ®

Пол:

Стаж: 5 лет 3 месяца

Сообщений: 420

Откуда: xxxtorrents.pro

Пост Пост: #1 от 11-Май-2019 20:34

[Цитировать]

Ковбои / Buffalo Boys- Производство: Индонезия, Сингапур / Infinite Frameworks Pte. Ltd., Zhao Wei Films (I), Infinite Frameworks Studios
Жанр: Боевик, вестерн
Режиссер: Майк Уилуэн
Актеры: Ёси Сударсо, Арио Баю, Певита Пирс, Тио Пакусодево, Рейну Буссемакер, Daniel Adnan, Хэппи Салма, Mikha Tambayong, Эль Маник, Донни Аламшя-Времена голландской оккупации Индонезии. Два брата, выросшие вдалеке от дома, возвращаются в родное поселение, чтобы отомстить за убийство отца...
Дата мировой премьеры: 14 июля 2018
Продолжительность: 01:42:38
Качество видео: WEB-DL
Перевод: Многоголосый закадровый, профессиональный (HDRezka Studio)
Субтитры: Английские (Forced, full)
Видео: AVC/H.264, 1920x1080, ~3858 Kbps
Аудио #1: AC3, 2 ch, 192 Kbps - Русский
Аудио #2: AC3, 6 ch, 384 Kbps - Индонезийский/английский

MediaInfo:

Общее
Уникальный идентификатор : 113517885467269202156852919504945861814 (0x5566BFDE373C2D4708A8723FA27CD4B6)
Полное имя : C:\XX\Ковбои\Buffalo Boys 2018 WEB-DL 1080p-LQ.mkv
Формат : Matroska
Версия формата : Version 4
Размер файла : 3,18 Гбайт
Продолжительность : 1 ч. 42 м.
Общий поток : 4437 Кбит/сек
Дата кодирования : UTC 2019-04-28 06:42:01
Программа кодирования : mkvmerge v20.0.0 ('I Am The Sun') 64-bit
Библиотека кодирования : libebml v1.3.5 + libmatroska v1.4.8
Видео
Идентификатор : 1
Формат : AVC
Формат/Информация : Advanced Video Codec
Профиль формата : High@L4
Настройки формата : CABAC / 3 Ref Frames
Параметр CABAC формата : Да
Параметр RefFrames формата : 3 кадра
Идентификатор кодека : V_MPEG4/ISO/AVC
Продолжительность : 1 ч. 42 м.
Битрейт : 3859 Кбит/сек
Ширина : 1920 пикселей
Высота : 1080 пикселей
Соотношение сторон : 16:9
Режим частоты кадров : Постоянный
Частота кадров : 24,000 кадра/сек
Цветовое пространство : YUV
Субдискретизация насыщенности : 4:2:0
Битовая глубина : 8 бит
Тип развёртки : Прогрессивная
Бит/(Пиксели*Кадры) : 0.078
Размер потока : 2,77 Гбайт (87%)
Язык : English
Default : Да
Forced : Нет
Аудио #1
Идентификатор : 2
Формат : AC-3
Формат/Информация : Audio Coding 3
Коммерческое название : Dolby Digital
Идентификатор кодека : A_AC3
Продолжительность : 1 ч. 42 м.
Вид битрейта : Постоянный
Битрейт : 192 Кбит/сек
Каналы : 2 канала
Channel layout : L R
Частота : 48,0 КГц
Частота кадров : 31,250 кадров/сек (1536 SPF)
Битовая глубина : 16 бит
Метод сжатия : С потерями
Размер потока : 141 Мбайт (4%)
Заголовок : MVO HDRezka Studio
Язык : Russian
ServiceKind/String : Complete Main
Default : Да
Forced : Нет
Аудио #2
Идентификатор : 3
Формат : AC-3
Формат/Информация : Audio Coding 3
Коммерческое название : Dolby Digital
Идентификатор кодека : A_AC3
Продолжительность : 1 ч. 42 м.
Вид битрейта : Постоянный
Битрейт : 384 Кбит/сек
Каналы : 6 каналов
Channel layout : L R C LFE Ls Rs
Частота : 48,0 КГц
Частота кадров : 31,250 кадров/сек (1536 SPF)
Битовая глубина : 16 бит
Метод сжатия : С потерями
Размер потока : 282 Мбайт (9%)
Язык : Indonesian
ServiceKind/String : Complete Main
Default : Нет
Forced : Нет
Текст #1
Идентификатор : 4
Формат : UTF-8
Идентификатор кодека : S_TEXT/UTF8
Идентификатор кодека/Информация : UTF-8 Plain Text
Продолжительность : 1 ч. 37 м.
Битрейт : 20 бит/сек
ElementCount : 662
Размер потока : 14,8 Кбайт (0%)
Заголовок : forced
Язык : English
Default : Нет
Forced : Нет
Текст #2
Идентификатор : 5
Формат : UTF-8
Идентификатор кодека : S_TEXT/UTF8
Идентификатор кодека/Информация : UTF-8 Plain Text
Продолжительность : 1 ч. 37 м.
Битрейт : 35 бит/сек
ElementCount : 1068
Размер потока : 25,5 Кбайт (0%)
Язык : English
Default : Нет
Forced : Нет
Скриншоты:
Скачать

Скачать торрент! Ковбои / Buffalo Boys (2018) WEB-DL [H.264/1080p-LQ] [MVO] [PR]

Как скачивать? · Что такое торрент? · Рейтинг и ограничения

Сайт не распространяет и не хранит электронные версии произведений, а лишь предоставляет доступ к создаваемому пользователями каталогу ссылок на торрент-файлы, которые содержат только списки хеш-сумм

загрузка...

_________________
ПУСТЬ ВАС НЕ СМУЩАЕТ ОТСУТСТВИЕ СИДОВ НА МОИХ РАЗДАЧАХ, РАЗДАЧИ МУЛЬТИТРЕКЕРНЫЕ СИДЫ (Раздающие) по DHT ЕСТЬ ВСЕГДА !!!!
[Профиль] [ЛС]
Показать сообщения:    
Ответить на тему

Текущее время: Сегодня 21:13

Часовой пояс: GMT + 4



Вы не можете начинать темы
Вы не можете отвечать на сообщения
Вы не можете редактировать свои сообщения
Вы не можете удалять свои сообщения
Вы не можете голосовать в опросах
Вы не можете прикреплять файлы к сообщениям
Вы не можете скачивать файлы