Подсудимый [Серии 1–16 из 16] [2019, криминал, детектив, HDTV 1080p]

Ответить на тему
 
Автор Сообщение

Magnat ®

Пол:

Стаж: 4 года 2 месяца

Сообщений: 420

Откуда: xxxtorrents.pro

Пост Пост: #1 от 09-Май-2019 18:39

[Цитировать]

--Подсудимый-- Год выпуска: 2019
Страна: Россия
Студия: «Триикс Медиа»
Жанр: криминал, детектив
Продолжительность: 16 x ~ 00:48:00
Язык: Русский
Режиссер: Максим Бриус
В ролях: Дмитрий Паламарчук, Пётр Рыков, Елена Вожакина, Андрей Терентьев, Владимир Литвинов, Антон Гуляев, Мария Русских, Андрей Марусин, Александр Рыбаков, Игорь Денисов, …-Описание: Жесткий и неподкупный следователь СК Андрей Климов отказывается от выгодных предложений в частных компаниях или продвижения по карьерной лестнице. Его главная цель в работе — разоблачение преступников вне зависимости от их финансового положения и статуса в обществе. У Климова дружная, образцовая семья — любимая жена и красавица-дочка. Он уверен в себе и близких и не предполагает, что скоро его мир рухнет в одночасье. Однажды, уснув у себя дома, Климов просыпается в тюремной камере. Через несколько часов следователь узнает, что его обвиняют в убийстве жены и дочери. Еще один удар Климову наносит его собственная память: потрясенный мужчина не может вспомнить ничего за последние четыре месяца. Единственное, что он точно знает — это детали одного из своих расследований. В свое время ему поручили дело о гибели президента солидной компании, в убийстве которого Климов подозревал его брата-близнеца. Связаны ли между собой обстоятельства расследуемого дела и смерть его близких? Кто на самом деле убил его жену? Почему он взял вину на себя?- -Качество видео: HDTV 1080р
Формат видео: MKV
Видеокодек: H.264
Аудиокодек: AC3
Видео: 1920x1080 (1.78:1), 25.000 fps, MPEG-4 AVC, ~7050 kbps avg
Аудио: 48.0 kHz, AC3 Dolby Digital, 2/0 (L,R) ch, ~192.00 kbps avg
Cубтитры: нет
-

MediaInfo:

General
Unique ID : 227852850096177645722747794379308718481 (0xAB6ADCD9584D6A6EAB4190A279E2D991)
Complete name : E:Запись с твPodsudimyj 2019 HDTV 1080p.R.G.GeneralfilmPodsudimyj.s01.e01.2019.HDTV 1080p.by.White Smoke.R.G.Generalfilm.mkv
Format : Matroska
Format version : Version 4 / Version 2
File size : 2.57 GiB
Duration : 50 min 49 s
Overall bit rate mode : Constant
Overall bit rate : 7 239 kb/s
Movie name : Podsudimyj.s01.e01.2019.HDTV 1080p.by.White Smoke.R.G.Generalfilm.mkv
Encoded date : UTC 2019-04-23 10:38:57
Writing application : mkvmerge v6.8.0 ('Theme for Great Cities') 64bit built on Mar 2 2014 21:34:26
Writing library : libebml v1.3.0 + libmatroska v1.4.1
Cover : Yes
Attachments : cover.jpg
Video
ID : 1
Format : AVC
Format/Info : Advanced Video Codec
Format profile : High@L4.1
Format settings : CABAC / 3 Ref Frames
Format settings, CABAC : Yes
Format settings, ReFrames : 3 frames
Codec ID : V_MPEG4/ISO/AVC
Duration : 50 min 49 s
Bit rate mode : Constant
Bit rate : 7 051 kb/s
Width : 1 920 pixels
Height : 1 080 pixels
Display aspect ratio : 16:9
Frame rate mode : Constant
Frame rate : 25.000 FPS
Standard : PAL
Color space : YUV
Chroma subsampling : 4:2:0
Bit depth : 8 bits
Scan type : Progressive
Bits/(Pixel*Frame) : 0.136
Stream size : 2.45 GiB (95%)
Default : Yes
Forced : No
Color range : Limited
Color primaries : BT.709
Transfer characteristics : BT.709
Matrix coefficients : BT.709
Audio
ID : 2
Format : AC-3
Format/Info : Audio Coding 3
Commercial name : Dolby Digital
Codec ID : A_AC3
Duration : 50 min 49 s
Bit rate mode : Constant
Bit rate : 192 kb/s
Channel(s) : 2 channels
Channel layout : L R
Sampling rate : 48.0 kHz
Frame rate : 31.250 FPS (1536 SPF)
Bit depth : 16 bits
Compression mode : Lossy
Stream size : 69.8 MiB (3%)
Service kind : Complete Main
Default : Yes
Forced : No
-

Скриншоты:

Скачать

Скачать торрент!

Как скачивать? · Что такое торрент? · Рейтинг и ограничения

Сайт не распространяет и не хранит электронные версии произведений, а лишь предоставляет доступ к создаваемому пользователями каталогу ссылок на торрент-файлы, которые содержат только списки хеш-сумм

загрузка...

_________________
ПУСТЬ ВАС НЕ СМУЩАЕТ ОТСУТСТВИЕ СИДОВ НА МОИХ РАЗДАЧАХ, РАЗДАЧИ МУЛЬТИТРЕКЕРНЫЕ СИДЫ (Раздающие) по DHT ЕСТЬ ВСЕГДА !!!!
[Профиль] [ЛС]
Показать сообщения:    
Ответить на тему

Текущее время: Сегодня 10:06

Часовой пояс: GMT + 4



Вы не можете начинать темы
Вы не можете отвечать на сообщения
Вы не можете редактировать свои сообщения
Вы не можете удалять свои сообщения
Вы не можете голосовать в опросах
Вы не можете прикреплять файлы к сообщениям
Вы не можете скачивать файлы