Джессика Джонс / Jessica Jones (2018) WEBRip (сезон 2, серии 1-13 из 13) LostFilm

Ответить на тему
 
Автор Сообщение

Magnat ®

Пол:

Стаж: 6 лет 5 месяцев

Сообщений: 453

Откуда: Москва

Пост Пост: #1 от 09-Май-2019 18:18

[Цитировать]

Джессика Джонс / Jessica Jones (сезон 2, серии 1-13 из 13)
«It's time the world knew her name»
- Производство: США / ABC Studios, Marvel Studios, Tall Girls Productions
Жанр: фантастика, боевик, триллер, драма, криминал
Режиссер: Ута Бризвитц, Розмари Родригез,
Актеры: Кристен Риттер, Рэйчел Тейлор, Ика Дэрвилл, Дж.Р. Рамирез, Кэрри-Энн Мосс, Николь Яннетти, Ребекка Де Морнэй, Лиззи Каппуччино, Иден Меришоу и др.-Наделенная сверхчеловеческими способностями Джессика Джонс, одно время была девушкой-супергероем, но после трагических событий вынуждена была начать новую жизнь. Джессика открыла в Нью-Йорке частное детективное агентство, чтобы расследовать дела, в которых замешаны люди со сверхъестественными способностями. Параллельно с работой детектива она пытается наладить свою личную жизнь
Продолжительность: ~00:50:00 серия
Качество видео: WEBRip
Перевод: Многоголосый закадровый, профессиональный - LostFilm
Видео: XviD, 720x400 (16:9), ~1458 kbps
Аудио 1: MP3, 48,0 kHz, 2 ch, 128 kbps — русский, многоголосый закадровый
Аудио 2: MP3, 48,0 kHz, 2 ch, 128 kbps — английский

MediaInfo

Общее
Полное имя : D:\Джессика Джонс (сезон 2) Jessica Jones (2018) WEBRip - LostFilm\Marvels.Jessica.Jones.S02E01.WEBRip.Rus.Eng.DV.LostFilm.avi
Формат : AVI
Формат/Информация : Audio Video Interleave
Размер файла : 665 Мбайт
Продолжительность : 53 м. 55 с.
Общий поток : 1724 Кбит/сек
Название фильма : Marvels.Jessica.Jones.S02E01.WEBRip.Rus.Eng.DV.LostFilm / NNM-Club
Программа кодирования : VirtualDubModRus 1.5.10.2 (build 2542/release)
Библиотека кодирования : VirtualDubMod build 2542/release
Видео
Идентификатор : 0
Формат : MPEG-4 Visual
Профиль формата : Advanced Simple@L5
Настройки формата : BVOP2
Параметр BVOP формата : 2
Параметр QPel формата : Нет
Параметр GMC формата : Без точки перехода
Параметр матрицы формата : Default (H.263)
Идентификатор кодека : XVID
Идентификатор кодека/Подсказка : XviD
Продолжительность : 53 м. 55 с.
Битрейт : 1458 Кбит/сек
Ширина : 720 пикселей
Высота : 400 пикселей
Соотношение сторон : 16:9
Частота кадров : 23,976 (24000/1001) кадра/сек
Цветовое пространство : YUV
Субдискретизация насыщенности : 4:2:0
Битовая глубина : 8 бит
Тип развёртки : Прогрессивная
Метод сжатия : С потерями
Бит/(Пиксели*Кадры) : 0.211
Размер потока : 562 Мбайт (85%)
Заголовок : Rip by DriverV / NNM-Club
Библиотека кодирования : XviD 67
Аудио #1
Идентификатор : 1
Формат : MPEG Audio
Версия формата : Version 1
Профиль формата : Layer 3
Настройки формата : Joint stereo / MS Stereo
Идентификатор кодека : 55
Идентификатор кодека/Подсказка : MP3
Продолжительность : 53 м. 4 с.
Вид битрейта : Постоянный
Битрейт : 128 Кбит/сек
Каналы : 2 канала
Частота : 48,0 КГц
Метод сжатия : С потерями
Размер потока : 48,6 Мбайт (7%)
Выравнивание : Соединение по промежуткам
Продолжительность промежутка : 42 мс. (1,02 видеокадр)
Время предзагрузки промежутка : 504 мс.
Аудио #2
Идентификатор : 2
Формат : MPEG Audio
Версия формата : Version 1
Профиль формата : Layer 3
Настройки формата : Joint stereo / MS Stereo
Идентификатор кодека : 55
Идентификатор кодека/Подсказка : MP3
Продолжительность : 53 м. 4 с.
Вид битрейта : Постоянный
Битрейт : 128 Кбит/сек
Каналы : 2 канала
Частота : 48,0 КГц
Метод сжатия : С потерями
Размер потока : 48,6 Мбайт (7%)
Выравнивание : Соединение по промежуткам
Продолжительность промежутка : 42 мс. (1,02 видеокадр)
Время предзагрузки промежутка : 504 мс.

Список серий

01. AKA Start at the Beginning / Или все с самого начала
02. AKA Freak Accident / Или несчастный случай
03. AKA Sole Survivor / Или единственная выжившая
04. AKA God Help the Hobo / Или да поможет Господь бродяге
05. AKA The Octopus / Или осьминог
06. AKA Facetime / Или лицом к лицу
07. AKA I Want Your Cray Cray / От тебя я чок-чок
08. AKA Ain't We Got Fun / Или - нам же весело
09. AKA Shark in the Bathtub, Monster in the Bed / Или акула в ванной, монстр в постели
10. AKA Pork Chop / Или отбивная
11. AKA Three Lives and Counting / Или три жизни не предел
12. AKA Pray for My Patsy / Или помолитесь за мою Пэтси
13. AKA Playland / Или Плэйлэнд

Дополнительная информация

"Чистый" кадр. Вступительная заставка и логотип LostFilm отсутствуют.
Скриншоты:
Скачать

Скачать торрент! Джессика Джонс / Jessica Jones (2018) WEBRip (сезон 2, серии 1-13 из 13) LostFilm

Как скачивать? · Что такое торрент? · Рейтинг и ограничения

Сайт не распространяет и не хранит электронные версии произведений, а лишь предоставляет доступ к создаваемому пользователями каталогу ссылок на торрент-файлы, которые содержат только списки хеш-сумм


_________________
ПУСТЬ ВАС НЕ СМУЩАЕТ ОТСУТСТВИЕ СИДОВ НА МОИХ РАЗДАЧАХ, РАЗДАЧИ МУЛЬТИТРЕКЕРНЫЕ СИДЫ (Раздающие) по DHT ЕСТЬ ВСЕГДА !!!!
[Профиль] [ЛС]
Показать сообщения:    
Ответить на тему

Текущее время: Сегодня 22:12

Часовой пояс: GMT + 4



Вы не можете начинать темы
Вы не можете отвечать на сообщения
Вы не можете редактировать свои сообщения
Вы не можете удалять свои сообщения
Вы не можете голосовать в опросах
Вы не можете прикреплять файлы к сообщениям
Вы не можете скачивать файлы