Тайны Фрэнки Дрейк / Frankie Drake Mysteries (2018) WEBRip [H.264/720p-LQ] (сезон 2, серии 1-10 из 10) ColdFilm

Ответить на тему
 
Автор Сообщение

Magnat ®

Пол:

Стаж: 5 лет 11 месяцев

Сообщений: 457

Откуда: Москва

Пост Пост: #1 от 09-Май-2019 18:15

[Цитировать]

Тайны Фрэнки Дрейк / Frankie Drake Mysteries (сезон 2, серии 1-10 из 10) - Производство: Канада / Shaftesbury
Жанр: Детектив, Криминал, Драма
Режиссер: Руба Надда, Норма Бэйли, Садс Сазерленд
Актеры: Лорен Ли Смит, Шантель Райли, Ребекка Лиддьярд, Шаррон Мэтьюз, Энтони Лемке, Грэйс Линн Кунг, Ромэйн Вейт, Венди Крюсон, Карен Робинсон, Эммануэль Кабонго и др.-Cериал расскажет о Франки Дрейк (Лорен Ли Смит), первой в городе женщине, ставшей частным детективом, действующей в канадском городе Торонто в 20-е годы прошлого века. Фрэнки Дрейк, обладая всеми качествами, присущими хорошему детективу, вместе со своей помощницей Труди (Шантель Райли), берётся за расследование самых сложных и запутанных преступлений, даже там, где казалось бы, нет даже никаких улик...
Продолжительность: ~ 00:45:00 серия
Качество видео: WEBRip
Перевод: Многоголосый закадровый, любительский (ColdFilm)
Субтитры: отсутствуют
Реклама: отсутствует
Видео: AVC/H.264, 1280x720, ~1585 Kbps
Аудио 1: AC3, 2 ch, 192 Kbps - русский
Аудио 2: AC3, 2 ch, 192 Kbps - английский

Mediainfo:

General
Unique ID : 216970498161325867947714161494898224517 (0xA33AFF795F6D18A6BDC760DD8377AD85)
Complete name : Frankie Drake Mysteries.S02.E01.mkv
Format : Matroska
Format version : Version 4
File size : 617 MiB
Duration : 43 min 44 s
Overall bit rate : 1 971 kb/s
Encoded date : UTC 2019-04-28 05:33:57
Writing application : mkvmerge v8.3.0 ('Over the Horizon') 32bit
Writing library : libebml v1.3.1 + libmatroska v1.4.2
Video
ID : 1
Format : AVC
Format/Info : Advanced Video Codec
Format profile : [url=mailto:Main@L3.1]Main@L3.1[/url]
Format settings : CABAC / 4 Ref Frames
Format settings, CABAC : Yes
Format settings, ReFrames : 4 frames
Codec ID : V_MPEG4/ISO/AVC
Duration : 43 min 44 s
Bit rate : 1 585 kb/s
Width : 1 280 pixels
Height : 720 pixels
Display aspect ratio : 16:9
Frame rate mode : Constant
Frame rate : 23.976 (24000/1001) FPS
Color space : YUV
Chroma subsampling : 4:2:0
Bit depth : 8 bits
Scan type : Progressive
Bits/(Pixel*Frame) : 0.072
Stream size : 496 MiB (80%)
Writing library : x264 core 148 r2708 86b7198
Encoding settings : cabac=1 / ref=3 / deblock=1:0:0 / analyse=0x1:0x111 / me=hex / subme=7 / psy=1 / psy_rd=1.00:0.00 / mixed_ref=1 / me_range=16 / chroma_me=1 / trellis=1 / 8x8dct=0 / cqm=0 / deadzone=21,11 / fast_pskip=1 / chroma_qp_offset=-2 / threads=12 / lookahead_threads=2 / sliced_threads=0 / nr=0 / decimate=1 / interlaced=0 / bluray_compat=0 / constrained_intra=0 / bframes=3 / b_pyramid=2 / b_adapt=1 / b_bias=0 / direct=1 / weightb=1 / open_gop=0 / weightp=2 / keyint=240 / keyint_min=24 / scenecut=40 / intra_refresh=0 / rc_lookahead=40 / rc=crf / mbtree=1 / crf=21.0 / qcomp=0.60 / qpmin=0 / qpmax=69 / qpstep=4 / vbv_maxrate=14000 / vbv_bufsize=14000 / crf_max=0.0 / nal_hrd=none / filler=0 / ip_ratio=1.40 / aq=1:1.00
Default : Yes
Forced : No
Color range : Limited
Color primaries : BT.709
Transfer characteristics : BT.709
Matrix coefficients : BT.709
Audio #1
ID : 2
Format : AC-3
Format/Info : Audio Coding 3
Commercial name : Dolby Digital
Codec ID : A_AC3
Duration : 43 min 44 s
Bit rate mode : Constant
Bit rate : 192 kb/s
Channel(s) : 2 channels
Channel layout : L R
Sampling rate : 48.0 kHz
Frame rate : 31.250 FPS (1536 SPF)
Bit depth : 16 bits
Compression mode : Lossy
Delay relative to video : -21 ms
Stream size : 60.1 MiB (10%)
Language : Russian
Service kind : Complete Main
Default : Yes
Forced : No
Audio #2
ID : 3
Format : AC-3
Format/Info : Audio Coding 3
Commercial name : Dolby Digital
Codec ID : A_AC3
Duration : 43 min 44 s
Bit rate mode : Constant
Bit rate : 192 kb/s
Channel(s) : 2 channels
Channel layout : L R
Sampling rate : 48.0 kHz
Frame rate : 31.250 FPS (1536 SPF)
Bit depth : 16 bits
Compression mode : Lossy
Delay relative to video : -10 ms
Stream size : 60.1 MiB (10%)
Language : English
Service kind : Complete Main
Default : No
Forced : No
Скриншоты:
Скачать

Скачать торрент! Тайны Фрэнки Дрейк / Frankie Drake Mysteries (2018) WEBRip [H.264/720p-LQ] (сезон 2, серии 1-10 из 10) ColdFilm

Как скачивать? · Что такое торрент? · Рейтинг и ограничения

Сайт не распространяет и не хранит электронные версии произведений, а лишь предоставляет доступ к создаваемому пользователями каталогу ссылок на торрент-файлы, которые содержат только списки хеш-сумм


_________________
ПУСТЬ ВАС НЕ СМУЩАЕТ ОТСУТСТВИЕ СИДОВ НА МОИХ РАЗДАЧАХ, РАЗДАЧИ МУЛЬТИТРЕКЕРНЫЕ СИДЫ (Раздающие) по DHT ЕСТЬ ВСЕГДА !!!!
[Профиль] [ЛС]
Показать сообщения:    
Ответить на тему

Текущее время: Сегодня 13:07

Часовой пояс: GMT + 4



Вы не можете начинать темы
Вы не можете отвечать на сообщения
Вы не можете редактировать свои сообщения
Вы не можете удалять свои сообщения
Вы не можете голосовать в опросах
Вы не можете прикреплять файлы к сообщениям
Вы не можете скачивать файлы