ОА / The OA (2019) WEBRip (сезон 2, серии 1-8 из 8) LostFilm

Ответить на тему
 
Автор Сообщение

Magnat ®

Пол:

Стаж: 5 лет 11 месяцев

Сообщений: 457

Откуда: Москва

Пост Пост: #1 от 09-Май-2019 18:10

[Цитировать]

ОА / The OA (сезон 2, серии 1-8 из 8)
«Get in»
- Производство: США / Plan B Entertainment, Anonymous Content, Netflix
Жанр: фантастика, фэнтези, драма, детектив
Режиссер: Зал Батманглидж
Актеры: Брит Марлинг, Патрик Гибсон, Эмори Коэн, Скотт Уилсон, Филлис Смит, Элис Крайдж, Брендан Мейер, Брэндон Переа, Иэн Александр, Джейсон Айзекс и др.-Главная героиня сериала – девушка по имени Прэйри Джонсон возвращается в родной город спустя 7 лет со дня своего загадочного исчезновения. Спину девушки украшают шрамы с изображением таинственных иероглифов, а сама Прэйри просит называть себя ОА. Но самое странное то, что до исчезновения она была слепой, а теперь полностью прозрела.
Продолжительность: ~01:00:00 серия
Качество видео: WEBRip
Перевод: Многоголосый закадровый, профессиональный - LostFilm
Видео: XviD, 720x334, ~1439 kbps
Аудио 1: MP3, 48,0 kHz, 2 ch, 128 kbps — русский, многоголосый закадровый
Аудио 2: MP3, 48,0 kHz, 2 ch, 128 kbps — английский

MediaInfo

Общее
Полное имя : D:\ОА (сезон 2) The OA (2019) WEBRip - LostFilm\The.OA.S02E01.WEBRip.Rus.Eng.DV.LostFilm.avi
Формат : AVI
Формат/Информация : Audio Video Interleave
Размер файла : 839 Мбайт
Продолжительность : 1 ч. 8 м.
Общий поток : 1709 Кбит/сек
Название фильма : The.OA.S02E01.WEBRip.Rus.Eng.DV.LostFilm / NNM-Club
Программа кодирования : VirtualDubModRus 1.5.10.2 (build 2542/release)
Библиотека кодирования : VirtualDubMod build 2542/release
Видео
Идентификатор : 0
Формат : MPEG-4 Visual
Профиль формата : Advanced Simple@L5
Настройки формата : BVOP2
Параметр BVOP формата : 2
Параметр QPel формата : Нет
Параметр GMC формата : Без точки перехода
Параметр матрицы формата : Default (H.263)
Идентификатор кодека : XVID
Идентификатор кодека/Подсказка : XviD
Продолжительность : 1 ч. 8 м.
Битрейт : 1439 Кбит/сек
Ширина : 720 пикселей
Высота : 334 пикселя
Соотношение сторон : 2,2:1
Частота кадров : 23,976 (24000/1001) кадра/сек
Цветовое пространство : YUV
Субдискретизация насыщенности : 4:2:0
Битовая глубина : 8 бит
Тип развёртки : Прогрессивная
Метод сжатия : С потерями
Бит/(Пиксели*Кадры) : 0.250
Размер потока : 706 Мбайт (84%)
Заголовок : Rip by DriverV / NNM-Club
Библиотека кодирования : XviD 67
Аудио #1
Идентификатор : 1
Формат : MPEG Audio
Версия формата : Version 1
Профиль формата : Layer 3
Настройки формата : Joint stereo / MS Stereo
Идентификатор кодека : 55
Идентификатор кодека/Подсказка : MP3
Продолжительность : 1 ч. 8 м.
Вид битрейта : Постоянный
Битрейт : 128 Кбит/сек
Каналы : 2 канала
Частота : 48,0 КГц
Метод сжатия : С потерями
Размер потока : 62,8 Мбайт (7%)
Выравнивание : Соединение по промежуткам
Продолжительность промежутка : 42 мс. (1,00 видеокадр)
Время предзагрузки промежутка : 504 мс.
Аудио #2
Идентификатор : 2
Формат : MPEG Audio
Версия формата : Version 1
Профиль формата : Layer 3
Настройки формата : Joint stereo / MS Stereo
Идентификатор кодека : 55
Идентификатор кодека/Подсказка : MP3
Продолжительность : 1 ч. 8 м.
Вид битрейта : Постоянный
Битрейт : 128 Кбит/сек
Каналы : 2 канала
Частота : 48,0 КГц
Метод сжатия : С потерями
Размер потока : 62,8 Мбайт (7%)
Выравнивание : Соединение по промежуткам
Продолжительность промежутка : 42 мс. (1,00 видеокадр)
Время предзагрузки промежутка : 504 мс.

Список серий

01. Angel of Death / Ангел смерти
02. Treasure Island / Трежер-Айленд
03. Magic Mirror / Волшебное зеркало
04. SYZYGY / СИЗИГИЯ
05. The Medium & The Engineer / Медиум и инженер
06. Mirror Mirror / Свет мой, зеркальце
07. Nina Azarova / Нина Азарова
08. Overview / Обзор

Дополнительная информация

"Чистый" кадр. Вступительная заставка и логотип LostFilm отсутствуют.

Скриншоты:

Скачать

Скачать торрент! ОА / The OA (2019) WEBRip (сезон 2, серии 1-8 из 8) LostFilm

Как скачивать? · Что такое торрент? · Рейтинг и ограничения

Сайт не распространяет и не хранит электронные версии произведений, а лишь предоставляет доступ к создаваемому пользователями каталогу ссылок на торрент-файлы, которые содержат только списки хеш-сумм


_________________
ПУСТЬ ВАС НЕ СМУЩАЕТ ОТСУТСТВИЕ СИДОВ НА МОИХ РАЗДАЧАХ, РАЗДАЧИ МУЛЬТИТРЕКЕРНЫЕ СИДЫ (Раздающие) по DHT ЕСТЬ ВСЕГДА !!!!
[Профиль] [ЛС]
Показать сообщения:    
Ответить на тему

Текущее время: Сегодня 20:51

Часовой пояс: GMT + 4



Вы не можете начинать темы
Вы не можете отвечать на сообщения
Вы не можете редактировать свои сообщения
Вы не можете удалять свои сообщения
Вы не можете голосовать в опросах
Вы не можете прикреплять файлы к сообщениям
Вы не можете скачивать файлы