Железное небо 2: Грядущая раса / Iron Sky: The Coming Race (2019) WEBRip [H.264/1080p-LQ] [AVO]

Ответить на тему
 
Автор Сообщение

Magnat ®

Пол:

Стаж: 4 года 1 месяц

Сообщений: 420

Откуда: xxxtorrents.pro

Пост Пост: #1 от 08-Май-2019 23:53

[Цитировать]

Железное небо 2: Грядущая раса / Iron Sky: The Coming Race- Производство: Финляндия, Германия, Бельгия, Iron Sky Universe, 27 Films Production, Potemkino
Жанр: Фантастика, Боевик, Комедия, Приключения
Режиссер: Тимо Вуоренсола
Актеры: Лара Росси, Владимир Бурлаков, Кит Дэйл, Том Грин, Юлия Дитце, Эдвард Джадж, Мартин Сваби, Эмили Атак, Удо Кир, Джон Фландерс-Спустя 20 лет после событий первого фильма остатки человечества вынуждены переселиться на ту самую базу, основанную в 1945 году сбежавшими нацистами на тёмной стороне Луны — жизнь на планете Земля погибла после разрушительной ядерной войны. Но в пустыне, лежащей посреди ядерной зимы, имеется секрет, касающийся появления человеческой расы, и этот секрет способен возродить былое величие людей или навеки похоронить их надежды на возвращение домой. Отряд людей во главе с отважной Оби Вашингтон отправится на Землю, чтобы бросить вызов армии рептилий Врила — древней космической расы, которая захватила половину галактики и Землю в том числе.
Дата мировой премьеры: 16 января 2019
Дата российской премьеры: -
Продолжительность: 01:32:45
Качество видео: WEBRip
Перевод: Авторский (одноголосый, закадровый) - А.Важенин (BadBajo)
Озвучка / Автор перевода: BadBajo
Субтитры: Отсутствуют
Видео: AVC/H.264, 1920х816, ~10000 Kbps
Аудио: AC3, 6 ch, 640 Kbps - Русский (BadBajo)
Аудио: ЕAC3, 6 ch, 384 Kbps - Английский

Mediainfo:

General
Unique ID : 142274180369861503807102515073064753994 (0x6B0902AB7555FBF70F3D9C516FC1DB4A)
Complete name : \Iron.Sky.The.Coming.Race.2019.1080p.AMZN.WEB-DL.DDP5.1.H.264_rus_BadBajo.mkv
Format : Matroska
Format version : Version 4
File size : 6.39 GiB
Duration : 1 h 32 min
Overall bit rate mode : Constant
Overall bit rate : 9 857 kb/s
Movie name : Iron.Sky.The.Coming.Race.2019.1080p.AMZN.WEB-DL.DDP5.1.H.264_rus_BadBajo
Encoded date : UTC 2019-05-07 08:48:33
Writing application : mkvmerge v20.0.0 ('I Am The Sun') 64-bit
Writing library : libebml v1.3.5 + libmatroska v1.4.8
Cover : Yes
Attachments : cover.jpg
Video
ID : 1
Format : AVC
Format/Info : Advanced Video Codec
Format profile : High@L4
Format settings : CABAC / 4 Ref Frames
Format settings, CABAC : Yes
Format settings, ReFrames : 4 frames
Codec ID : V_MPEG4/ISO/AVC
Duration : 1 h 32 min
Bit rate mode : Constant
Bit rate : 8 575 kb/s
Nominal bit rate : 10 000 kb/s
Width : 1 920 pixels
Height : 816 pixels
Display aspect ratio : 2.35:1
Frame rate mode : Constant
Frame rate : 23.976 (24000/1001) FPS
Color space : YUV
Chroma subsampling : 4:2:0
Bit depth : 8 bits
Scan type : Progressive
Bits/(Pixel*Frame) : 0.228
Stream size : 5.56 GiB (87%)
Title : Iron.Sky.The.Coming.Race.2019.1080p.AMZN.WEB-DL.DDP5.1.H.264_rus_BadBajo
Default : Yes
Forced : No
Color range : Limited
Color primaries : BT.709
Transfer characteristics : BT.709
Matrix coefficients : BT.709
Audio #1
ID : 2
Format : AC-3
Format/Info : Audio Coding 3
Commercial name : Dolby Digital
Codec ID : A_AC3
Duration : 1 h 32 min
Bit rate mode : Constant
Bit rate : 640 kb/s
Channel(s) : 6 channels
Channel layout : L R C LFE Ls Rs
Sampling rate : 48.0 kHz
Frame rate : 31.250 FPS (1536 SPF)
Bit depth : 16 bits
Compression mode : Lossy
Stream size : 425 MiB (6%)
Title : Iron.Sky.The.Coming.Race.2019.AC3_rus_BadBajo
Language : Russian
Service kind : Complete Main
Default : Yes
Forced : Yes
Audio #2
ID : 3
Format : E-AC-3
Format/Info : Enhanced AC-3
Commercial name : Dolby Digital Plus
Codec ID : A_EAC3
Duration : 1 h 32 min
Bit rate mode : Constant
Bit rate : 640 kb/s
Channel(s) : 6 channels
Channel layout : L R C LFE Ls Rs
Sampling rate : 48.0 kHz
Frame rate : 31.250 FPS (1536 SPF)
Compression mode : Lossy
Stream size : 425 MiB (6%)
Title : Iron.Sky.The.Coming.Race.2019.EAC_3_eng
Language : English
Service kind : Complete Main
Default : No
Forced : No
Скриншоты:

Дополнительные скриншоты:

Скачать

Скачать торрент!

Как скачивать? · Что такое торрент? · Рейтинг и ограничения

Сайт не распространяет и не хранит электронные версии произведений, а лишь предоставляет доступ к создаваемому пользователями каталогу ссылок на торрент-файлы, которые содержат только списки хеш-сумм

загрузка...

_________________
ПУСТЬ ВАС НЕ СМУЩАЕТ ОТСУТСТВИЕ СИДОВ НА МОИХ РАЗДАЧАХ, РАЗДАЧИ МУЛЬТИТРЕКЕРНЫЕ СИДЫ (Раздающие) по DHT ЕСТЬ ВСЕГДА !!!!
[Профиль] [ЛС]
Показать сообщения:    
Ответить на тему

Текущее время: Сегодня 05:47

Часовой пояс: GMT + 4



Вы не можете начинать темы
Вы не можете отвечать на сообщения
Вы не можете редактировать свои сообщения
Вы не можете удалять свои сообщения
Вы не можете голосовать в опросах
Вы не можете прикреплять файлы к сообщениям
Вы не можете скачивать файлы