Клаустрофобы / Escape Room (2019) BDRip [H.264/720p]

Ответить на тему
 
Автор Сообщение

Magnat ®

Пол:

Стаж: 4 года 4 месяца

Сообщений: 420

Откуда: xxxtorrents.pro

Пост Пост: #1 от 05-Май-2019 21:19

[Цитировать]

Клаустрофобы / Escape Room - Производство: США, Канада / Original Film
Жанр: Триллер
Режиссер: Адам Робител
Продюсер: Ори Мармур, Нил Х. Мориц, Донован Робертс-Бакстер
Актеры: Тейлор Расселл, Логан Миллер, Джей Эллис, Тайлер Лабин, Дебора Энн, Уолл Ник, Додани, Йорик ван Вагенинген, Корнелиус Джини мл., Расселл Краус, Барт Фаш-Получив приглашение сыграть в квест, победитель которого получит денежное вознаграждение, шестеро прежде незнакомых между собой людей решают испытать удачу. Но вскоре становится очевидно, что их выбрали для игры не случайно, задания не такие безобидные, участникам грозит вполне реальная опасность, а ставка в игре — их собственные жизни.
Возраст: 16+ (зрителям, достигшим 16 лет)
Рейтинг MPAA: PG-13 (детям до 13 лет просмотр нежелателен)
Дата мировой премьеры: 3 января 2019
Дата российской премьеры: 7 февраля 2019, «WDSSPR»
Цифровой релиз: 11 апреля 2019, «Sony Pictures Home Entertainment»
Продолжительность: 01:39:37
Качество видео: BDRip (HDChina)
Перевод: Дублированный (iTunes)
Субтитры: Русские (Forced, Full), Английские (Full, SDH)
Видео: AVC/H.264, 1280x536, ~ 5000 Kbps, 23.976 fps
Аудио 1: AC3, 6 ch, 384 Kbps | Русский
Аудио 2: AC3, 6 ch, 448 Kbps | Английский

h.264 log:

----------X264 iNFO------------

x264 [info]: frame I:1672 Avg QP:11.87 size:113970
x264 [info]: frame P:33514 Avg QP:13.61 size: 46095
x264 [info]: frame B:108141 Avg QP:14.82 size: 18515

x264 [info]: consecutive B-frames: 3.3% 5.4% 7.9% 25.0% 15.8% 26.2% 5.9% 8.8% 1.6%

Mediainfo:

General
Complete name : \Клаустрофобы_Escape Room (2019) BDRip.H.264.720p.NNMClub.mkv
Format : Matroska
Format version : Version 2
File size : 4.06 GiB
Duration : 1 h 39 min
Overall bit rate : 5 836 kb/s
Movie name : Клаустрофобы_Escape Room (2019) BDRip.H.264.720p.NNMClub
Encoded date : UTC 2019-04-16 16:42:05
Writing application : mkvmerge v32.0.0 ('Astral Progressions') 64-bit
Writing library : libebml v1.3.7 + libmatroska v1.5.0
Video
ID : 1
Format : AVC
Format/Info : Advanced Video Codec
Format profile : [url=mailto:High@L4.1]High@L4.1[/url]
Format settings : CABAC / 12 Ref Frames
Format settings, CABAC : Yes
Format settings, RefFrames : 12 frames
Codec ID : V_MPEG4/ISO/AVC
Duration : 1 h 39 min
Bit rate : 5 000 kb/s
Width : 1 280 pixels
Height : 536 pixels
Display aspect ratio : 2.40:1
Frame rate mode : Constant
Frame rate : 23.976 (24000/1001) FPS
Color space : YUV
Chroma subsampling : 4:2:0
Bit depth : 8 bits
Scan type : Progressive
Bits/(Pixel*Frame) : 0.304
Stream size : 3.40 GiB (84%)
Title : Escape.Room.2019.BluRay.720p.x264.DTS-HDChina
Writing library : x264 core 152 r2851kMod ba24899
Encoding settings : cabac=1 / ref=12 / deblock=1:-3:-3 / analyse=0x3:0x133 / me=umh / subme=11 / psy=1 / fade_compensate=0.00 / psy_rd=1.05:0.00 / mixed_ref=1 / me_range=48 / chroma_me=1 / trellis=2 / 8x8dct=1 / cqm=0 / deadzone=21,11 / fast_pskip=0 / chroma_qp_offset=-2 / threads=17 / lookahead_threads=2 / sliced_threads=0 / nr=0 / decimate=0 / interlaced=0 / bluray_compat=0 / constrained_intra=0 / bframes=8 / b_pyramid=2 / b_adapt=2 / b_bias=0 / direct=3 / weightb=1 / open_gop=0 / weightp=2 / keyint=240 / keyint_min=2 / scenecut=40 / intra_refresh=0 / rc_lookahead=0 / rc=2pass / mbtree=0 / bitrate=5000 / ratetol=1.0 / qcomp=0.70 / qpmin=0 / qpmax=69 / qpstep=4 / cplxblur=20.0 / qblur=0.5 / vbv_maxrate=50000 / vbv_bufsize=30000 / nal_hrd=none / filler=0 / ip_ratio=1.30 / pb_ratio=1.20 / aq=3:0.80
Language : English
Default : Yes
Forced : No
Audio #1
ID : 2
Format : AC-3
Format/Info : Audio Coding 3
Commercial name : Dolby Digital
Codec ID : A_AC3
Duration : 1 h 39 min
Bit rate mode : Constant
Bit rate : 384 kb/s
Channel(s) : 6 channels
Channel layout : L R C LFE Ls Rs
Sampling rate : 48.0 kHz
Frame rate : 31.250 FPS (1536 SPF)
Bit depth : 16 bits
Compression mode : Lossy
Stream size : 274 MiB (7%)
Title : Дублированный (iTunes)
Language : Russian
Service kind : Complete Main
Default : Yes
Forced : No
Audio #2
ID : 3
Format : AC-3
Format/Info : Audio Coding 3
Commercial name : Dolby Digital
Codec ID : A_AC3
Duration : 1 h 39 min
Bit rate mode : Constant
Bit rate : 448 kb/s
Channel(s) : 6 channels
Channel layout : L R C LFE Ls Rs
Sampling rate : 48.0 kHz
Frame rate : 31.250 FPS (1536 SPF)
Bit depth : 16 bits
Compression mode : Lossy
Stream size : 319 MiB (8%)
Language : English
Service kind : Complete Main
Default : No
Forced : No
Text #1
ID : 4
Format : UTF-8
Codec ID : S_TEXT/UTF8
Codec ID/Info : UTF-8 Plain Text
Title : Forced
Language : Russian
Default : Yes
Forced : No
Text #2
ID : 5
Format : UTF-8
Codec ID : S_TEXT/UTF8
Codec ID/Info : UTF-8 Plain Text
Title : Full
Language : Russian
Default : No
Forced : No
Text #3
ID : 6
Format : UTF-8
Codec ID : S_TEXT/UTF8
Codec ID/Info : UTF-8 Plain Text
Title : Full
Language : English
Default : No
Forced : No
Text #4
ID : 7
Format : UTF-8
Codec ID : S_TEXT/UTF8
Codec ID/Info : UTF-8 Plain Text
Title : SDH
Language : English
Default : No
Forced : No
Menu
00:00:00.000 : en:00:00:00.000
00:04:36.026 : en:00:04:36.026
00:09:25.648 : en:00:09:25.648
00:14:08.765 : en:00:14:08.765
00:19:46.102 : en:00:19:46.102
00:25:55.220 : en:00:25:55.220
00:33:08.945 : en:00:33:08.945
00:37:27.162 : en:00:37:27.162
00:43:05.082 : en:00:43:05.082
00:50:06.170 : en:00:50:06.170
00:53:58.569 : en:00:53:58.569
01:03:15.291 : en:01:03:15.291
01:09:07.894 : en:01:09:07.894
01:16:14.695 : en:01:16:14.695
01:22:48.755 : en:01:22:48.755
01:30:27.881 : en:01:30:27.881
Скриншоты:
Скачать

Скачать торрент!

Как скачивать? · Что такое торрент? · Рейтинг и ограничения

Сайт не распространяет и не хранит электронные версии произведений, а лишь предоставляет доступ к создаваемому пользователями каталогу ссылок на торрент-файлы, которые содержат только списки хеш-сумм

загрузка...

_________________
ПУСТЬ ВАС НЕ СМУЩАЕТ ОТСУТСТВИЕ СИДОВ НА МОИХ РАЗДАЧАХ, РАЗДАЧИ МУЛЬТИТРЕКЕРНЫЕ СИДЫ (Раздающие) по DHT ЕСТЬ ВСЕГДА !!!!
[Профиль] [ЛС]
Показать сообщения:    
Ответить на тему

Текущее время: Сегодня 13:59

Часовой пояс: GMT + 4



Вы не можете начинать темы
Вы не можете отвечать на сообщения
Вы не можете редактировать свои сообщения
Вы не можете удалять свои сообщения
Вы не можете голосовать в опросах
Вы не можете прикреплять файлы к сообщениям
Вы не можете скачивать файлы