Блуждающая Земля / Liu lang di qiu (The Wandering Earth) (2019) WEB-DL [H.264/720p-LQ] [MVO]

Ответить на тему
 
Автор Сообщение

Magnat ®

Пол:

Стаж: 4 года 1 месяц

Сообщений: 420

Откуда: xxxtorrents.pro

Пост Пост: #1 от 05-Май-2019 21:00

[Цитировать]

Блуждающая Земля / Liu lang di qiu (The Wandering Earth)- Производство: Китай / Beijing Jingxi Culture & Tourism Company, China Film Company Limited
Жанр: Фантастика, Боевик
Режиссер: Франт Гво
Актеры: Джеки Ву, Цюй Чусяо, Ли Гуанцзе, Нг Ман-Тат, Чжао Цзиньмай, Цюй Цзинцзин, Чжан Ичи, Ян Хаоюй, Аркадий Шароградский, Ли Хунчэнь-В ближайшем будущем становится известно, что Солнце скоро погаснет, и Солнечная система будет разрушена. Тогда человечество запускает масштабный проект под названием «Блуждающая Земля», цель которого - с помощью сложных технических приспособлений сдвинуть Землю и полететь искать новое пристанище.
Дата мировой премьеры: 5.02.2019
Продолжительность: 02:00:34
Качество видео: WEBRip
Перевод: Многоголосый любительский (КОЛОБОК)
Субтитры: китайские, английские (вшитые, неотключаемые)
Видео: AVC/H.264, 1280x720, ~4980 kbps
Аудио 1: AAC, 2 ch, 192 kbps (Русский, многоголосый закадровый [КОЛОБОК])
Аудио 2: AC3, 2 ch, 256 kbps (Китайский)

Mediainfo:

General
Unique ID : 158329714653936112797758345343043838472 (0x771D31A06794F4B935991E34CD872208)
Complete name : Liu.Lang.Di.Qiu.2019.P.WEBRip.720p.mkv
Format : Matroska
Format version : Version 4 / Version 2
File size : 4.58 GiB
Duration : 2 h 0 min
Overall bit rate mode : Variable
Overall bit rate : 5 434 kb/s
Encoded date : UTC 2019-03-05 16:16:19
Writing application : mkvmerge v31.0.0 ('Dolores In A Shoestand') 64-bit
Writing library : libebml v1.3.6 + libmatroska v1.4.9
Video
ID : 1
Format : AVC
Format/Info : Advanced Video Codec
Format profile : [url=mailto:Main@L3.1]Main@L3.1[/url]
Format settings : CABAC / 3 Ref Frames
Format settings, CABAC : Yes
Format settings, ReFrames : 3 frames
Format settings, GOP : M=3, N=25
Codec ID : V_MPEG4/ISO/AVC
Duration : 2 h 0 min
Bit rate mode : Variable
Bit rate : 4 980 kb/s
Maximum bit rate : 9 999 kb/s
Width : 1 280 pixels
Height : 720 pixels
Display aspect ratio : 16:9
Frame rate mode : Constant
Frame rate : 23.976 (24000/1001) FPS
Color space : YUV
Chroma subsampling : 4:2:0
Bit depth : 8 bits
Scan type : Progressive
Bits/(Pixel*Frame) : 0.225
Stream size : 4.19 GiB (92%)
Language : English
Default : Yes
Forced : No
Audio #1
ID : 2
Format : AAC
Format/Info : Advanced Audio Codec
Format profile : LC
Codec ID : A_AAC-2
Duration : 2 h 0 min
Bit rate : 192 kb/s
Channel(s) : 2 channels
Channel positions : Front: L R
Sampling rate : 48.0 kHz
Frame rate : 46.875 FPS (1024 SPF)
Compression mode : Lossy
Delay relative to video : -42 ms
Stream size : 168 MiB (4%)
Title : многолосый, КОЛОБОК
Language : Russian
Default : Yes
Forced : No
Audio #2
ID : 3
Format : AC-3
Format/Info : Audio Coding 3
Codec ID : A_AC3
Duration : 2 h 0 min
Bit rate mode : Constant
Bit rate : 256 kb/s
Channel(s) : 2 channels
Channel positions : Front: L R
Sampling rate : 48.0 kHz
Frame rate : 31.250 FPS (1536 SPF)
Bit depth : 16 bits
Compression mode : Lossy
Delay relative to video : -42 ms
Stream size : 221 MiB (5%)
Title : китайский, оригинал
Language : Chinese
Service kind : Complete Main
Default : No
Forced : No
Скриншоты:
Скачать

Скачать торрент!

Как скачивать? · Что такое торрент? · Рейтинг и ограничения

Сайт не распространяет и не хранит электронные версии произведений, а лишь предоставляет доступ к создаваемому пользователями каталогу ссылок на торрент-файлы, которые содержат только списки хеш-сумм

загрузка...

_________________
ПУСТЬ ВАС НЕ СМУЩАЕТ ОТСУТСТВИЕ СИДОВ НА МОИХ РАЗДАЧАХ, РАЗДАЧИ МУЛЬТИТРЕКЕРНЫЕ СИДЫ (Раздающие) по DHT ЕСТЬ ВСЕГДА !!!!
[Профиль] [ЛС]
Показать сообщения:    
Ответить на тему

Текущее время: Сегодня 05:51

Часовой пояс: GMT + 4



Вы не можете начинать темы
Вы не можете отвечать на сообщения
Вы не можете редактировать свои сообщения
Вы не можете удалять свои сообщения
Вы не можете голосовать в опросах
Вы не можете прикреплять файлы к сообщениям
Вы не можете скачивать файлы