Остров Гуава / Guava Island (2019) WEB-DL 1080p | HDRezka Studio

Ответить на тему
 
Автор Сообщение

Magnat ®

Пол:

Стаж: 4 года 4 месяца

Сообщений: 420

Откуда: xxxtorrents.pro

Пост Пост: #1 от 05-Май-2019 20:02

[Цитировать]

Остров Гуава / Guava Island- Название: Остров Гуава
Оригинальное название: Guava Island
Год выпуска: 2019
Жанр: Комедия, музыка, триллер
Режиссер: Хиро Мурай
В ролях: Дональд Гловер, Рианна, Летишиа Райт, Нонсо Анози, Alan Jael Velázquez Abreu, Ренни Аросарена, Betiza Bismark, Michael Ricardo Crespo Cardenas, Barbara Janet Martinez, Ayensi Amilgar Jardines Delgado-События разворачиваются на острове Гуава вокруг Кофи и Дени — пары возлюбленных. Кофи работает обычной швеей, а в свободное время вдохновляет бойфренда-музыканта на создание новых хитов. Красивые мелодии, написанные Дени, нравятся простым жителям острова, поэтому однажды парень решает провести музыкальный фестиваль для всех желающих. Но вскоре становится очевидным, что организовать мероприятие будет крайне сложно, поскольку местный теневой магнат пытается сделать все возможное, чтобы сорвать фестиваль.
Выпущено: США, New Regency Pictures
Продолжительность: 00:55:42
Перевод: Профессиональный (многоголосый, закадровый) | HDRezka Studio
Качество: WEB-DL 1080p
Контейнер: MKV
Видео: MPEG-4 AVC, 10.0 Мбит/с, 1920x1080
Аудио 1: Русский: AC3, 2 ch, 192 Кбит/с - HDRezka Studio
Аудио 2: Английский: E-AC3, 6 ch, 640 Кбит/с - Original
Субтитры: Русские, английские, французские, немецкие и др.

Скриншоты


MediaInfo

General
Unique ID : 321527348114914026424120769487585950954 (0xF1E3EA2E322527065658597883243CEA)
Complete name : G:Guava.Island.2019.1080p.WEB-DL.1080p.mkv
Format : Matroska
Format version : Version 4 / Version 2
File size : 4.15 GiB
Duration : 55 min 41 s
Overall bit rate : 10.7 Mb/s
Encoded date : UTC 2019-05-02 21:28:22
Writing application : mkvmerge v20.0.0 ('I Am The Sun') 64-bit
Writing library : libebml v1.3.5 + libmatroska v1.4.8
Video
ID : 1
Format : AVC
Format/Info : Advanced Video Codec
Format profile : High@L4
Format settings : CABAC / 4 Ref Frames
Format settings, CABAC : Yes
Format settings, RefFrames : 4 frames
Codec ID : V_MPEG4/ISO/AVC
Duration : 55 min 41 s
Bit rate mode : Constant
Bit rate : 10 000 kb/s
Width : 1 920 pixels
Height : 1 080 pixels
Display aspect ratio : 16:9
Frame rate mode : Constant
Frame rate : 23.976 (24000/1001) FPS
Color space : YUV
Chroma subsampling : 4:2:0
Bit depth : 8 bits
Scan type : Progressive
Bits/(Pixel*Frame) : 0.201
Stream size : 3.82 GiB (92%)
Language : English
Default : Yes
Forced : No
Color range : Limited
Color primaries : BT.709
Transfer characteristics : BT.709
Matrix coefficients : BT.709
Audio #1
ID : 2
Format : AC-3
Format/Info : Audio Coding 3
Codec ID : A_AC3
Duration : 55 min 41 s
Bit rate mode : Constant
Bit rate : 192 kb/s
Channel(s) : 2 channels
Channel positions : Front: L R
Sampling rate : 48.0 kHz
Frame rate : 31.250 FPS (1536 SPF)
Bit depth : 16 bits
Compression mode : Lossy
Stream size : 76.5 MiB (2%)
Title : MVO, HDRezka Studio
Language : Russian
Service kind : Complete Main
Default : Yes
Forced : No
Audio #2
ID : 3
Format : E-AC-3
Format/Info : Enhanced Audio Coding 3
Codec ID : A_EAC3
Duration : 55 min 41 s
Bit rate mode : Constant
Bit rate : 640 kb/s
Channel(s) : 6 channels
Channel positions : Front: L C R, Side: L R, LFE
Sampling rate : 48.0 kHz
Frame rate : 187.500 FPS (256 SPF)
Compression mode : Lossy
Stream size : 255 MiB (6%)
Language : English
Service kind : Complete Main
Default : No
Forced : No
Text #1
ID : 4
Format : UTF-8
Codec ID : S_TEXT/UTF8
Codec ID/Info : UTF-8 Plain Text
Duration : 53 min 45 s
Bit rate : 44 b/s
Count of elements : 364
Stream size : 17.7 KiB (0%)
Language : Russian
Default : No
Forced : No
Text #2
ID : 5
Format : UTF-8
Codec ID : S_TEXT/UTF8
Codec ID/Info : UTF-8 Plain Text
Duration : 55 min 18 s
Bit rate : 57 b/s
Count of elements : 783
Stream size : 23.3 KiB (0%)
Language : English
Default : No
Forced : No
Text #3
ID : 6
Format : UTF-8
Codec ID : S_TEXT/UTF8
Codec ID/Info : UTF-8 Plain Text
Duration : 53 min 45 s
Bit rate : 26 b/s
Count of elements : 362
Stream size : 10.6 KiB (0%)
Language : French
Default : No
Forced : No
Text #4
ID : 7
Format : UTF-8
Codec ID : S_TEXT/UTF8
Codec ID/Info : UTF-8 Plain Text
Duration : 53 min 45 s
Bit rate : 26 b/s
Count of elements : 350
Stream size : 10.6 KiB (0%)
Language : German
Default : No
Forced : No
Text #5
ID : 8
Format : UTF-8
Codec ID : S_TEXT/UTF8
Codec ID/Info : UTF-8 Plain Text
Duration : 53 min 45 s
Bit rate : 36 b/s
Count of elements : 364
Stream size : 14.4 KiB (0%)
Language : Arabic
Default : No
Forced : No
Text #6
ID : 9
Format : UTF-8
Codec ID : S_TEXT/UTF8
Codec ID/Info : UTF-8 Plain Text
Duration : 53 min 45 s
Bit rate : 25 b/s
Count of elements : 363
Stream size : 10.1 KiB (0%)
Language : Danish
Default : No
Forced : No
Text #7
ID : 10
Format : UTF-8
Codec ID : S_TEXT/UTF8
Codec ID/Info : UTF-8 Plain Text
Duration : 53 min 45 s
Bit rate : 25 b/s
Count of elements : 364
Stream size : 10.1 KiB (0%)
Language : Spanish
Default : No
Forced : No
Text #8
ID : 11
Format : UTF-8
Codec ID : S_TEXT/UTF8
Codec ID/Info : UTF-8 Plain Text
Duration : 53 min 45 s
Bit rate : 25 b/s
Count of elements : 364
Stream size : 10.1 KiB (0%)
Language : Spanish
Default : No
Forced : No
Text #9
ID : 12
Format : UTF-8
Codec ID : S_TEXT/UTF8
Codec ID/Info : UTF-8 Plain Text
Duration : 53 min 45 s
Bit rate : 22 b/s
Count of elements : 364
Stream size : 8.92 KiB (0%)
Language : Finnish
Default : No
Forced : No
Text #10
ID : 13
Format : UTF-8
Codec ID : S_TEXT/UTF8
Codec ID/Info : UTF-8 Plain Text
Duration : 53 min 45 s
Bit rate : 71 b/s
Count of elements : 364
Stream size : 28.0 KiB (0%)
Language : Hindi
Default : No
Forced : No
Text #11
ID : 14
Format : UTF-8
Codec ID : S_TEXT/UTF8
Codec ID/Info : UTF-8 Plain Text
Duration : 53 min 45 s
Bit rate : 27 b/s
Count of elements : 364
Stream size : 10.9 KiB (0%)
Language : Indonesian
Default : No
Forced : No
Text #12
ID : 15
Format : UTF-8
Codec ID : S_TEXT/UTF8
Codec ID/Info : UTF-8 Plain Text
Duration : 53 min 45 s
Bit rate : 25 b/s
Count of elements : 364
Stream size : 9.87 KiB (0%)
Language : Italian
Default : No
Forced : No
Text #13
ID : 16
Format : UTF-8
Codec ID : S_TEXT/UTF8
Codec ID/Info : UTF-8 Plain Text
Duration : 53 min 46 s
Bit rate : 22 b/s
Count of elements : 350
Stream size : 8.88 KiB (0%)
Language : Japanese
Default : No
Forced : No
Text #14
ID : 17
Format : UTF-8
Codec ID : S_TEXT/UTF8
Codec ID/Info : UTF-8 Plain Text
Duration : 53 min 45 s
Bit rate : 31 b/s
Count of elements : 364
Stream size : 12.5 KiB (0%)
Language : Korean
Default : No
Forced : No
Text #15
ID : 18
Format : UTF-8
Codec ID : S_TEXT/UTF8
Codec ID/Info : UTF-8 Plain Text
Duration : 53 min 45 s
Bit rate : 25 b/s
Count of elements : 364
Stream size : 10.2 KiB (0%)
Language : Norwegian Bokmal
Default : No
Forced : No
Text #16
ID : 19
Format : UTF-8
Codec ID : S_TEXT/UTF8
Codec ID/Info : UTF-8 Plain Text
Duration : 53 min 45 s
Bit rate : 24 b/s
Count of elements : 356
Stream size : 9.59 KiB (0%)
Language : Dutch
Default : No
Forced : No
Text #17
ID : 20
Format : UTF-8
Codec ID : S_TEXT/UTF8
Codec ID/Info : UTF-8 Plain Text
Duration : 53 min 45 s
Bit rate : 25 b/s
Count of elements : 364
Stream size : 9.86 KiB (0%)
Language : Polish
Default : No
Forced : No
Text #18
ID : 21
Format : UTF-8
Codec ID : S_TEXT/UTF8
Codec ID/Info : UTF-8 Plain Text
Duration : 53 min 45 s
Bit rate : 26 b/s
Count of elements : 364
Stream size : 10.3 KiB (0%)
Language : Portuguese
Default : No
Forced : No
Text #19
ID : 22
Format : UTF-8
Codec ID : S_TEXT/UTF8
Codec ID/Info : UTF-8 Plain Text
Duration : 53 min 45 s
Bit rate : 26 b/s
Count of elements : 363
Stream size : 10.5 KiB (0%)
Language : Swedish
Default : No
Forced : No
Text #20
ID : 23
Format : UTF-8
Codec ID : S_TEXT/UTF8
Codec ID/Info : UTF-8 Plain Text
Duration : 53 min 45 s
Bit rate : 80 b/s
Count of elements : 364
Stream size : 31.8 KiB (0%)
Language : Tamil
Default : No
Forced : No
Text #21
ID : 24
Format : UTF-8
Codec ID : S_TEXT/UTF8
Codec ID/Info : UTF-8 Plain Text
Duration : 53 min 45 s
Bit rate : 73 b/s
Count of elements : 364
Stream size : 29.1 KiB (0%)
Language : Telugu
Default : No
Forced : No
Text #22
ID : 25
Format : UTF-8
Codec ID : S_TEXT/UTF8
Codec ID/Info : UTF-8 Plain Text
Duration : 53 min 45 s
Bit rate : 25 b/s
Count of elements : 364
Stream size : 9.92 KiB (0%)
Language : Turkish
Default : No
Forced : No
Text #23
ID : 26
Format : UTF-8
Codec ID : S_TEXT/UTF8
Codec ID/Info : UTF-8 Plain Text
Duration : 53 min 45 s
Bit rate : 22 b/s
Count of elements : 364
Stream size : 8.68 KiB (0%)
Language : Chinese
Default : No
Forced : No
Menu
00:00:00.000 : en:Amazon Original
00:00:10.000 : en:Studio Logo
00:00:27.000 : en:Title Sequence
00:00:31.000 : en:Opening Credits
00:01:36.000 : en:The story of life on Guava Island
00:05:18.000 : en:Deni is late for work
00:11:06.000 : en:Living in paradise without actually living
00:17:40.000 : en:A meeting with Red about what's best for the island
00:23:23.000 : en:Kofi's love is like summertime magic
00:30:11.000 : en:Rumors float around the island
00:31:55.000 : en:Uplifting the voices of children
00:33:17.000 : en:Kofi fears for Deni's mistake
00:36:58.000 : en:A celebration of life
00:45:15.000 : en:The island comes back to life
00:51:10.000 : en:End Credits
Скачать

Скачать торрент!

Как скачивать? · Что такое торрент? · Рейтинг и ограничения

Сайт не распространяет и не хранит электронные версии произведений, а лишь предоставляет доступ к создаваемому пользователями каталогу ссылок на торрент-файлы, которые содержат только списки хеш-сумм

загрузка...

_________________
ПУСТЬ ВАС НЕ СМУЩАЕТ ОТСУТСТВИЕ СИДОВ НА МОИХ РАЗДАЧАХ, РАЗДАЧИ МУЛЬТИТРЕКЕРНЫЕ СИДЫ (Раздающие) по DHT ЕСТЬ ВСЕГДА !!!!
[Профиль] [ЛС]
Показать сообщения:    
Ответить на тему

Текущее время: Сегодня 14:52

Часовой пояс: GMT + 4



Вы не можете начинать темы
Вы не можете отвечать на сообщения
Вы не можете редактировать свои сообщения
Вы не можете удалять свои сообщения
Вы не можете голосовать в опросах
Вы не можете прикреплять файлы к сообщениям
Вы не можете скачивать файлы