Реализация / Implementation (Серия 1-24 из 24)(Виктор Шкуратов, Сергей Щербин) [2018, Детектив , WEB-DLRip-AVC][720p][DD5.1]

Ответить на тему
 
Автор Сообщение

Nikolai.Baranov ®

Пол:

Стаж: 2 года 1 месяц

Сообщений: 95

Откуда: Красногорск

Пост Пост: #1 от 17-Мар-2019 12:48

[Цитировать]

-- Реализация / Implementation Серия 1-24 из 24 -Полный Комплект -- --Год выпуска: 2018
Выпущено: Россия , , Триикс Медиа по заказу телеканала НТВ
Жанр: Детектив
Продолжительность: 50:00
Серия: 1-24
Количество серий в сезоне:24
Озвучка : -Русский --Релиз Без Рекламы --Кинопоиск --Режиссеры:
Виктор Шкуратов, Сергей Щербин--В ролях: Дмитрий Паламарчук, Эдуард Флёров, Кирилл Рубцов, Сергей Юшкевич, Михаил Тарабукин, Максим Дахненко, Алексей Красноцветов, Ирина Ларионова, Игорь Ключников, Сергей Жарков, Елена Вожакина, Андрей Терентьев, Роман Агеев, Кирилл Полухин, Сергей Уманов, Вячеслав Аркунов, Алексей Штукин, Наталия Вязовская, Степан Пивкин, Виталий Салий, Юлия Кудояр, Игорь Грабузов, Антон Сычёв, Кирилл Кузнецов, Антон Чернов, Артём Цыпин, Владимир Петров (VIII), Станислав Ткаченко, Александр Клемантович, Олег Метелев, Юрий Ковалёв, Ирина Горкунова, Вячеслав Гумеров, Татьяна Ермилова (II), Дмитрий Могучев, Александр Петров (V), Михаил Сидаш, Геннадий Меньшиков, Александр Кратиров
-- Опытного розыскника из Великого Новгорода с необычной фамилией Красавец после конфликта с влиятельным бизнесменом переводят на должность простого участкового в Центральный район Петербурга. Все, чего он теперь хочет — тихо и мирно дослужить до пенсии. Но едва ли не каждый день на новом месте Красавец оказывается в эпицентре преступных событий: то его втягивают в разборки между криминальным авторитетом и коллегами из УМВД, то он занимается поисками похищенного начальника главка, то ему приходится охотиться на неуловимого киллера…-- --Качество :WEB-DLRip 720p
Формат: MKV
Видео кодек: H264
Видео: 3130Кбит/сек,1280х720(16.9),в 25.000кадр/сек,AVC (Baseline@L3.1)(1 Ref Frames)--Аудио Кодек:AC3
Аудио #1:AC3 , 384 Kbps, 48.0 KHz, 6 ch-Русский--

MediaInfo

Общее
Уникальный идентификатор : 235041039065166634435065182150547444178 (0xB0D341ED74E0A4D5D072AAA7E63F91D2)
Полное имя : C:\Nikolai.Baranov & PIRATIYA\РЕАЛИЗАЦИЯ - Implementation\Implementation_2018_Н264_DD5.1_N.B_HD_720_Rus\Implementation_2018_Е01-Е02_Н264_DD5.1_N.B_HD_720_Rus.mkv
Формат : Matroska
Версия формата : Version 4
Размер файла : 2,42 Гбайт
Продолжительность : 1 ч. 38 м.
Режим общего битрейта : Переменный
Общий поток : 3516 Кбит/сек
Название фильма : Implementation 2018 Е01-Е02 @ Nikolai.Baranov & PIRATIYA
Дата кодирования : UTC 2019-03-17 06:08:14
Программа кодирования : mkvmerge v32.0.0 ('Astral Progressions') 64-bit
Библиотека кодирования : libebml v1.3.7 + libmatroska v1.5.0
Видео
Идентификатор : 1
Формат : AVC
Формат/Информация : Advanced Video Codec
Профиль формата : Baseline@L3.1
Настройки формата : 1 Ref Frames
Параметр CABAC формата : Нет
Параметр RefFrames формата : 1 кадр
Параметр GOP формата : M=1, N=12
Идентификатор кодека : V_MPEG4/ISO/AVC
Продолжительность : 1 ч. 38 м.
Вид битрейта : Переменный
Битрейт : 3130 Кбит/сек
Максимальный битрейт : 4500 Кбит/сек
Ширина : 1280 пикселей
Высота : 720 пикселей
Соотношение сторон : 16:9
Режим частоты кадров : Постоянный
Частота кадров : 25,000 кадров/сек
Частота кадров в оригинале : 24,000 кадра/сек
Цветовое пространство : YUV
Субдискретизация насыщенности : 4:2:0
Битовая глубина : 8 бит
Тип развёртки : Прогрессивная
Бит/(Пиксели*Кадры) : 0.136
Размер потока : 2,15 Гбайт (89%)
Заголовок : Implementation_2018_Е01-Е02_Н264_DD5.1_N.B_HD_720_Rus
Язык : Russian
Default : Да
Forced : Нет
Аудио
Идентификатор : 2
Формат : AC-3
Формат/Информация : Audio Coding 3
Коммерческое название : Dolby Digital
Идентификатор кодека : A_AC3
Продолжительность : 1 ч. 38 м.
Вид битрейта : Постоянный
Битрейт : 384 Кбит/сек
Каналы : 6 каналов
Channel layout : L R C LFE Ls Rs
Частота : 48,0 КГц
Частота кадров : 31,250 кадров/сек (1536 SPF)
Битовая глубина : 16 бит
Метод сжатия : С потерями
Размер потока : 271 Мбайт (11%)
Заголовок : Russian @DD5.1 AC3, 384 Kbps, 48.0 KHz, 6 ch
Язык : Russian
ServiceKind/String : Complete Main
Default : Да
Forced : Нет
Меню
00:00:00.000 : :Глава 01 / :Глава 01
--

Скриншоты

-- --

Как закачать отдельный файл

1. Открыть торрент
2. Снять галки с тех файлов торрента, которые мы не хотим закачивать. Оставляем только на нужных нам файлах (файле).
3. Нажать О.К.
В клиенте utorrent
Инструкция
1) Открыть торрент

2) Снять галки с тех файлов торрента, которые мы не хотим закачивать:
* либо вручную, снимая с каждого файла галку( скрин №1)
* либо, нажав кнопку "Снять метки (Select None)", сняв сразу со всех файлов(скрин №2)
№1

№2

Оставляем только на нужных нам файлах (файле).

3)Нажать О.К
-- -- --Внимание!!! 25.03. 2019. РАЗДАЧА ОБНОВЛЕНА. ДОБАВЛЕНА - 21 -24- СЕРИЯ. ФИНАЛ СЕЗОНА ОБНОВИТЕ ТОРЕНТ ФАЙЛ. ПРИЯТНОГО ПРОСМОТРА . Поблагодарить:
ЯД: 410017546713876
--Релиз от: Nikolai.Baranov & PIRATIYA -- -- -- --Время раздачи : 24/7--
Скачать

Скачать торрент!

Как скачивать? · Что такое торрент? · Рейтинг и ограничения

Сайт не распространяет и не хранит электронные версии произведений, а лишь предоставляет доступ к создаваемому пользователями каталогу ссылок на торрент-файлы, которые содержат только списки хеш-сумм

загрузка...

_________________

Легко быть оптимистом, когда судьба не валит с ног тяжелыми ударами, а лишь иногда легонько шлепает по заднице.
[Профиль] [ЛС]
Показать сообщения:    
Ответить на тему

Текущее время: Сегодня 09:04

Часовой пояс: GMT + 4



Вы не можете начинать темы
Вы не можете отвечать на сообщения
Вы не можете редактировать свои сообщения
Вы не можете удалять свои сообщения
Вы не можете голосовать в опросах
Вы не можете прикреплять файлы к сообщениям
Вы не можете скачивать файлы