Интервью с Путиным / The Putin Interviews, 1-4 серии из 4, 2017, WEBRip 720p L2

Ответить на тему
 
Автор Сообщение

vladimirrkievljanin ®

Стаж: 5 месяцев 17 дней

Сообщений: 2

Пост Пост: #1 от 24-Июн-2017 20:06

[Цитировать]

Интервью с Путиным / The Putin Interviews

Год выпуска: 2017
Страна: США, Ixtlan Productions
Жанр: Документальный, биография, политика
Продолжительность: 4 x ~00:58:00
Перевод: Любительский (двухголосый закадровый) Sunshine Studio
Режиссер: Оливер Стоун
Продюссер: Фернандо Суличин
Сценарий: Оливер Стоун
Премьера в мире: 12 июня 2017
В ролях: Владимир Путин, Оливер Стоун
Описание: «Интервью с Путиным», «Путин» (англ. The Putin Interviews) — четырёхсерийный документальный фильм 2017 года режиссёра Оливера Стоуна о президенте РФ Владимире Путине. Слоган фильма — «Know your enemy» («Узнайте своего противника»).
Оливер Стоун и Владимир Путин общаются на разные темы, включая отношения России и США, расширение НАТО и развертывание ПРО в Европе, войны в Сирии и на Украине, деятельности Эдварда Сноудена. Также в фильме рассказывается о биографии российского президента, в том числе и о том, что раньше президент держал в секрете.
Фильм делится на четыре серии, которые будут показаны 12-15 июня 2017 года.
Первая серия телепроекта рассказывает в основном про события из прошлого президента, например, детстве президента и его родителях, распаде СССР, 1990-х годах.
В одном из эпизодов Путин отметил, что американские спецслужбы помогали террористам во время чеченской войны. По его мнению, США используют террористов «для раскачки внутриполитической ситуации», кроме того, он полагает, что США хотят разрушить экономику и сменить власть в стране. Российский президент в ходе интервью заявил о наличии у него доказательств сказанного, предъявить которые в открытый доступ он не может. При этом он рассказал об эпизоде, когда в ответ на показанный президенту Джорджу Бушу список фамилий сотрудников ЦРУ, работавших с чеченскими боевиками, ЦРУ в ответ прислало письмо с подтверждением данных фактов и текстом о том, что они и дальше будут поддерживать отношения со всеми, с кем считают нужным.
Режиссёр Оливер Стоун познакомился с Владимиром Путиным во время своей поездки в 2015 году в Россию для бесед с Эдвардом Сноуденом в процессе создания фильма о нём.
Подготовка проекта шла два года, в течение которых Стоун неоднократно встречался с политиком, последний раз состоялся после выборов президента США. Всего с июля 2015 года по февраль 2017 года было записано 30 часов интервью, которые были сгруппированы в 12 бесед.
По словам Стоуна, основная цель фильма состоит в том, чтобы США услышали и поняли другую точку зрения, чтобы предотвратить дальнейшее ухудшение отношений между странами.
Комментируя беседы с Путиным, Стоун сказал, что тот впечатлил его своими лидерскими качествами, отстаиванием интересов России: «Он — истинный сын России». Стоуну импонирует дисциплинированность, работоспособность, выносливость российского президента.
Качество: WEBRip
Формат: MKV
Видео кодек: MPEG4 AVC
Аудио кодек: AAC
Видео: AVC, 1280x720 (16:9), >4000 kb/s, 23.000 FPS
Аудио: AAC, 192 kb/s, 2 channels, 44.1 kHz

Официальный сайт
Внимание, присутствуют вставки голосовой и/или текстовой рекламы.
Релиз от: ShowTime

Скриншоты

Список выпусков/серий

«Камера не может врать»: Оливер Стоун ответил на вопросы о фильме про Путина - Oliver.Stone.about.film.mkv
1 серия - The.Putin.Interviews.s01.e01.720p.rus.mkv
2 серия - The.Putin.Interviews.s01.e02.720p.rus.mkv
3 серия - The.Putin.Interviews.s01.e03.720p.rus.mkv
4 серия - The.Putin.Interviews.s01.e04.720p.rus.mkv

MediaInfo

General
Unique ID : 211888558780824037038397414505332611623 (0x9F68408492B43CE184D5F28FB0E81A27)
Complete name : D:\Film\The Putin Interviews\The.Putin.Interviews.s01.e01.720p.rus.mkv
Format : Matroska
Format version : Version 4 / Version 2
File size : 1.92 GiB
Duration : 58 min 21 s
Overall bit rate : 4 719 kb/s
Encoded date : UTC 2017-06-18 04:13:29
Writing application : mkvmerge v12.0.0 ('Trust / Lust') 64bit
Writing library : libebml v1.3.4 + libmatroska v1.4.5
Video
ID : 1
Format : AVC
Format/Info : Advanced Video Codec
Format profile : Baseline@L5
Format settings, CABAC : No
Format settings, ReFrames : 1 frame
Codec ID : V_MPEG4/ISO/AVC
Duration : 58 min 21 s
Bit rate : 4 527 kb/s
Width : 1 280 pixels
Height : 720 pixels
Display aspect ratio : 16:9
Frame rate mode : Constant
Frame rate : 23.000 FPS
Color space : YUV
Chroma subsampling : 4:2:0
Bit depth : 8 bits
Scan type : Progressive
Bits/(Pixel*Frame) : 0.214
Stream size : 1.85 GiB (96%)
Language : English
Default : Yes
Forced : No
Color range : Limited
Audio
ID : 2
Format : AAC
Format/Info : Advanced Audio Codec
Format profile : LC
Codec ID : A_AAC
Duration : 58 min 21 s
Bit rate : 192 kb/s
Channel(s) : 2 channels
Channel positions : Front: L R
Sampling rate : 44.1 kHz
Frame rate : 43.066 FPS (1024 spf)
Compression mode : Lossy
Stream size : 79.2 MiB (4%)
Language : English
Default : Yes
Forced : No
---------------------------------------------------------------------------------------------------
General
Unique ID : 236389554078337275821699869158541000300 (0xB1D6F8D9D72816D6A059B640C2AA7E6C)
Complete name : D:\Film\The Putin Interviews\The.Putin.Interviews.s01.e02.720p.rus.mkv
Format : Matroska
Format version : Version 4 / Version 2
File size : 2.39 GiB
Duration : 58 min 12 s
Overall bit rate : 5 871 kb/s
Encoded date : UTC 2017-06-18 04:46:05
Writing application : mkvmerge v12.0.0 ('Trust / Lust') 64bit
Writing library : libebml v1.3.4 + libmatroska v1.4.5
Video
ID : 1
Format : AVC
Format/Info : Advanced Video Codec
Format profile : Baseline@L5
Format settings, CABAC : No
Format settings, ReFrames : 1 frame
Codec ID : V_MPEG4/ISO/AVC
Duration : 58 min 12 s
Bit rate : 5 680 kb/s
Width : 1 280 pixels
Height : 720 pixels
Display aspect ratio : 16:9
Frame rate mode : Constant
Frame rate : 23.000 FPS
Color space : YUV
Chroma subsampling : 4:2:0
Bit depth : 8 bits
Scan type : Progressive
Bits/(Pixel*Frame) : 0.268
Stream size : 2.31 GiB (97%)
Language : English
Default : Yes
Forced : No
Color range : Limited
Audio
ID : 2
Format : AAC
Format/Info : Advanced Audio Codec
Format profile : LC
Codec ID : A_AAC
Duration : 58 min 12 s
Bit rate : 192 kb/s
Channel(s) : 2 channels
Channel positions : Front: L R
Sampling rate : 44.1 kHz
Frame rate : 43.066 FPS (1024 spf)
Compression mode : Lossy
Stream size : 79.0 MiB (3%)
Language : English
Default : Yes
Forced : No
---------------------------------------------------------------------------------------------------
General
Unique ID : 248220316159809216971732729882514890827 (0xBABD7E74CD192EA4A2720A56CBE9204B)
Complete name : D:\Film\The Putin Interviews\The.Putin.Interviews.s01.e03.720p.rus.mkv
Format : Matroska
Format version : Version 4 / Version 2
File size : 1.96 GiB
Duration : 58 min 23 s
Overall bit rate : 4 799 kb/s
Encoded date : UTC 2017-06-18 04:56:06
Writing application : mkvmerge v12.0.0 ('Trust / Lust') 64bit
Writing library : libebml v1.3.4 + libmatroska v1.4.5
Video
ID : 1
Format : AVC
Format/Info : Advanced Video Codec
Format profile : High@L5
Format settings, CABAC : Yes
Format settings, ReFrames : 4 frames
Codec ID : V_MPEG4/ISO/AVC
Duration : 58 min 23 s
Bit rate : 4 608 kb/s
Width : 1 280 pixels
Height : 720 pixels
Display aspect ratio : 16:9
Frame rate mode : Constant
Frame rate : 23.000 FPS
Color space : YUV
Chroma subsampling : 4:2:0
Bit depth : 8 bits
Scan type : Progressive
Bits/(Pixel*Frame) : 0.217
Stream size : 1.88 GiB (96%)
Language : English
Default : Yes
Forced : No
Color range : Limited
Color primaries : BT.709
Transfer characteristics : BT.709
Matrix coefficients : BT.601
Audio
ID : 2
Format : AAC
Format/Info : Advanced Audio Codec
Format profile : LC
Codec ID : A_AAC
Duration : 58 min 23 s
Bit rate : 192 kb/s
Channel(s) : 2 channels
Channel positions : Front: L R
Sampling rate : 44.1 kHz
Frame rate : 43.066 FPS (1024 spf)
Compression mode : Lossy
Stream size : 79.2 MiB (4%)
Language : English
Default : Yes
Forced : No
-------------------------------------------------------------------------------------------------
General
Unique ID : 230272926971264678460737781826778953378 (0xAD3CF3D9E5255314859799EB7E55F6A2)
Complete name : D:\Film\The Putin Interviews\The.Putin.Interviews.s01.e04.720p.rus.mkv
Format : Matroska
Format version : Version 4 / Version 2
File size : 1.73 GiB
Duration : 56 min 38 s
Overall bit rate : 4 380 kb/s
Encoded date : UTC 2017-06-18 04:59:45
Writing application : mkvmerge v12.0.0 ('Trust / Lust') 64bit
Writing library : libebml v1.3.4 + libmatroska v1.4.5
Video
ID : 1
Format : AVC
Format/Info : Advanced Video Codec
Format profile : High@L5
Format settings, CABAC : Yes
Format settings, ReFrames : 4 frames
Codec ID : V_MPEG4/ISO/AVC
Duration : 56 min 38 s
Bit rate : 4 188 kb/s
Width : 1 280 pixels
Height : 720 pixels
Display aspect ratio : 16:9
Frame rate mode : Constant
Frame rate : 23.000 FPS
Color space : YUV
Chroma subsampling : 4:2:0
Bit depth : 8 bits
Scan type : Progressive
Bits/(Pixel*Frame) : 0.198
Stream size : 1.66 GiB (96%)
Language : English
Default : Yes
Forced : No
Color range : Limited
Color primaries : BT.709
Transfer characteristics : BT.709
Matrix coefficients : BT.601
Audio
ID : 2
Format : AAC
Format/Info : Advanced Audio Codec
Format profile : LC
Codec ID : A_AAC
Duration : 56 min 38 s
Bit rate : 192 kb/s
Channel(s) : 2 channels
Channel positions : Front: L R
Sampling rate : 44.1 kHz
Frame rate : 43.066 FPS (1024 spf)
Compression mode : Lossy
Stream size : 76.8 MiB (4%)
Language : English
Default : Yes
Forced : No
Скачать

Скачать торрент!

Как скачивать? · Что такое торрент? · Рейтинг и ограничения

Сайт не распространяет и не хранит электронные версии произведений, а лишь предоставляет доступ к создаваемому пользователями каталогу ссылок на торрент-файлы, которые содержат только списки хеш-сумм

[Профиль] [ЛС]
Показать сообщения:    
Ответить на тему

Текущее время: Сегодня 16:03

Часовой пояс: GMT + 4



Вы не можете начинать темы
Вы не можете отвечать на сообщения
Вы не можете редактировать свои сообщения
Вы не можете удалять свои сообщения
Вы не можете голосовать в опросах
Вы не можете прикреплять файлы к сообщениям
Вы не можете скачивать файлы