Легенда о Красном драконе / Новая легенда Шаолиня / Legend of the Red Dragon / Hung Hei Kwun: Siu Lam ng zou (Джин Вонг, Кори Юэнь / Jing Wong, Corey Yuen) [1994, Гонконг, Боевик, боевые искусства, комедия, DVDRip] AVO (Сергей Кузнецов)

Ответить на тему
 
Автор Сообщение

user ®

Стаж: 13 лет

Сообщений: 15071

Пост Пост: #1 от 05-Фев-2016 23:33

[Цитировать]

Легенда о Красном драконе / Новая легенда Шаолиня
Legend of the Red Dragon / Hung Hei Kwun: Siu Lam ng zou
- Страна: Гонконг
Жанр: Боевик, боевые искусства, комедия
Год выпуска: 1994
Продолжительность: 01:34:07
Перевод: Авторский (одноголосый закадровый) Сергей Кузнецов
Cубтитры: нет
Режиссер: Джин Вонг, Кори Юэнь / Jing Wong, Corey Yuen
В ролях: Джет Ли, Чингми Яу, Динни Йип, Миу Це, Чунг-Юнг Чан, Чуэнь-Хуа Чи, Дэмиэн Лау, Ланг Вэй Ванг, Цзин Вон
Описание: Войска жестокого властелина сжигают деревню, истребляют жителей, убивают жену благородного воина Квуна. Ему удается спасти сына, и они отправляются в далекое странствие, чтобы отомстить безжалостным обидчикам. Устроившись телохранителем к богатому господину, Квун вместе с сыном становятся героями необычайных приключений, сногсшибательных, парящих над землей поединков.
Попадают в город призраков. К ним присоединяется королева боевых искусств, завоевавшая сердце Квуна. Теперь они должны защитить от хищных боевиков великолепную пятерку мальчиков, на спинах которых вытатуирована карта местонахождения сокровищ…
Доп. информация: КИТАЙСКАЯ ВЕРСИЯ ФИЛЬМА - длиннее американской на 10 минут. По качеству картинки уступает американской, но всё же полная версия какая есть!

Автор: Sem-te
Релиз от:
Качество видео: DVDRip
Формат видео: AVI
Видео: 688x384 (1.79:1), 25 fps, XviD build 73 ~2016 kbps avg, 0.30 bit/pixel
Аудио: 48 kHz, AC3 Dolby Digital, 2/0 (L,R) ch, ~192 kbps
MediaInfo
Format : AVI
Format/Info : Audio Video Interleave
File size : 1.46 GiB
Duration : 1h 34mn
Overall bit rate : 2 219 Kbps
Writing application : VirtualDubMod 1.5.10.3 | www.virtualdub-fr.org || (build 2550/release)
Writing library : VirtualDubMod build 2550/release
Video
ID : 0
Format : MPEG-4 Visual
Format profile : Advanced Simple@L5
Format settings, BVOP : 1
Format settings, QPel : No
Format settings, GMC : No warppoints
Format settings, Matrix : Custom
Codec ID : XVID
Codec ID/Hint : XviD
Duration : 1h 34mn
Bit rate : 2 017 Kbps
Width : 688 pixels
Height : 384 pixels
Display aspect ratio : 16:9
Frame rate : 25.000 fps
Color space : YUV
Chroma subsampling : 4:2:0
Bit depth : 8 bits
Scan type : Progressive
Compression mode : Lossy
Bits/(Pixel*Frame) : 0.305
Stream size : 1.33 GiB (91%)
Writing library : XviD 73
Audio
ID : 1
Format : AC-3
Format/Info : Audio Coding 3
Mode extension : CM (complete main)
Format settings, Endianness : Big
Codec ID : 2000
Duration : 1h 34mn
Bit rate mode : Constant
Bit rate : 192 Kbps
Channel(s) : 2 channels
Channel positions : Front: L R
Sampling rate : 48.0 KHz
Bit depth : 16 bits
Compression mode : Lossy
Stream size : 129 MiB (9%)
Alignment : Split accross interleaves
Interleave, duration : 40 ms (1.00 video frame)
Interleave, preload duration : 500 ms
Скриншот c названием фильма Скриншоты
Скачать

Скачать торрент! Легенда о Красном драконе / Новая легенда Шаолиня / Legend of the Red Dragon / Hung Hei Kwun: Siu Lam ng zou (Джин Вонг, Кори Юэнь / Jing Wong, Corey Yuen) [1994, Гонконг, Боевик, боевые искусства, комедия, DVDRip] AVO (Сергей Кузнецов)

Как скачивать? · Что такое торрент? · Рейтинг и ограничения

Сайт не распространяет и не хранит электронные версии произведений, а лишь предоставляет доступ к создаваемому пользователями каталогу ссылок на торрент-файлы, которые содержат только списки хеш-сумм

[Профиль] [ЛС]
Показать сообщения:    
Ответить на тему

Текущее время: Сегодня 15:30

Часовой пояс: GMT + 4



Вы не можете начинать темы
Вы не можете отвечать на сообщения
Вы не можете редактировать свои сообщения
Вы не можете удалять свои сообщения
Вы не можете голосовать в опросах
Вы не можете прикреплять файлы к сообщениям
Вы не можете скачивать файлы