Баркха / Barkhaa (Шадаб Мырза / Shadaab Mirza) [2015, Индия, Драма, мелодрама, DVDRip] DVO (DeadSno&Den904) + Sub Rus (на песни)

Ответить на тему
 
Автор Сообщение

user ®

Стаж: 12 лет

Сообщений: 15092

Пост Пост: #1 от 05-Фев-2016 23:33

[Цитировать]

Баркха / Barkhaa- Страна: Индия
Жанр: Драма, мелодрама
Год выпуска: 2015
Продолжительность: 02:08:02-Перевод: Любительский (двухголосый закадровый) DeadSno&Den904
Cубтитры: Русские (на песни)-Режиссер: Шадаб Мырза / Shadaab Mirza-В ролях: Сара Лорен, Прияншу Чаттерджи, Тааха Шах, Пунит Иссар, Швета Пандит, Ашиеш Рой-Описание: Молодой фотограф-любитель Джатин приезжает в Химачал-Прадеш, чтобы сделать красивые снимки местных достопримечательностей, но на второй же день теряет свою любимую камеру. Расстроенный в лучший чувствах, Джатин идёт прямиком в полицию, где сообщает о краже. Но не успел парень и глазом моргнуть, как одна прекрасная незнакомка, нашедшая его любимую вещь, возвращает её в участок и мигом удаляется, даже не дав возможности Джатину поблагодарить её. Он лишь услышал её имя - Баркха, и с тех пор, юноша не знает ни сна, ни покоя, пытаясь разыскать девушку. Однако, он даже не догадывается о том, каким непредсказуемым было её прошлое- -Качество видео: DVDRip
Формат видео: AVI-Видео: 720x304 (2.35:1), XviD build 64, 24.000 fps, 1400 Kbps
Аудио: 48.0 kHz, MP3, 2 ch, 192 Kbps-Озвучка: DeadSno&Den904
Перевод и редакция: ❖ Honey&Haseena ❖
Фильм переведён и озвучен при финансовой поддержке Николаевой Светланы-
-
MediaInfo
General
Complete name : Barkhaa
Format : AVI
Format/Info : Audio Video Interleave
Format profile : OpenDML
File size : 1.44 GiB
Duration : 2h 8mn
Overall bit rate : 1 607 Kbps
Writing application : XviD4PSP 7.0 / 55.33.100
Comment : MATROSKA,WEBM > AVI DVD Player 720x / H264 > XVID VBR 1400kbps HQ / AC3 > MP3 CBR 192kbps HQ
Video #0
ID : 0
Format : MPEG-4 Visual
Format profile : Advanced Simple@L5
Format settings, BVOP : 1
Format settings, QPel : No
Format settings, GMC : No warppoints
Format settings, Matrix : Default (H.263)
Codec ID : XVID
Codec ID/Hint : XviD
Duration : 2h 8mn
Bit rate : 1 400 Kbps
Width : 720 pixels
Height : 304 pixels
Display aspect ratio : 2.35:1
Frame rate : 24.000 fps
Color space : YUV
Chroma subsampling : 4:2:0
Bit depth : 8 bits
Scan type : Progressive
Compression mode : Lossy
Bits/(Pixel*Frame) : 0.267
Stream size : 1.25 GiB (87%)
Writing library : XviD 64
Audio #1
ID : 1
Format : MPEG Audio
Format version : Version 1
Format profile : Layer 3
Mode : Joint stereo
Codec ID : 55
Codec ID/Hint : MP3
Duration : 2h 8mn
Bit rate mode : Constant
Bit rate : 192 Kbps
Channel(s) : 2 channels
Sampling rate : 48.0 KHz
Compression mode : Lossy
Stream size : 176 MiB (12%)
Alignment : Aligned on interleaves
Interleave, duration : 24 ms (0.58 video frame)
Interleave, preload duration : 24 ms
Writing library : LAME3.99.4
Скриншот c названием фильма Скриншоты
Скачать

Скачать торрент! Баркха / Barkhaa (Шадаб Мырза / Shadaab Mirza) [2015, Индия, Драма, мелодрама, DVDRip] DVO (DeadSno&Den904) + Sub Rus (на песни)

Как скачивать? · Что такое торрент? · Рейтинг и ограничения

Сайт не распространяет и не хранит электронные версии произведений, а лишь предоставляет доступ к создаваемому пользователями каталогу ссылок на торрент-файлы, которые содержат только списки хеш-сумм

[Профиль] [ЛС]
Показать сообщения:    
Ответить на тему

Текущее время: Сегодня 14:48

Часовой пояс: GMT + 4



Вы не можете начинать темы
Вы не можете отвечать на сообщения
Вы не можете редактировать свои сообщения
Вы не можете удалять свои сообщения
Вы не можете голосовать в опросах
Вы не можете прикреплять файлы к сообщениям
Вы не можете скачивать файлы