Моя собака Тюльпан / My Dog Tulip (Пол Фирлингер / Paul Fierlinger, Сандра Фирлингер / Sandra Fierlinger) [2009, США, мультфильм для взрослых, драма, HDRip-AVC] DVO + Original (Eng) + Sub (eng)

Ответить на тему
 
Автор Сообщение

user ®

Стаж: 12 лет

Сообщений: 15145

Пост Пост: #1 от 04-Фев-2016 11:30

[Цитировать]

Моя собака Тюльпан
My Dog Tulip
«Sometimes, love really is a bitch» Год выпуска: 2009
Страна: США
Жанр: мультфильм для взрослых, драма
Продолжительность: 01:08:39
Перевод: Профессиональный (Двухголосый закадровый) - студия Elrom
русские субтитры: нет-Режиссёр: Пол Фирлингер : Paul Fierlinger, Сандра Фирлингер : Sandra Fierlinger-Роли озвучивали: Кристофер Пламмер, Линн Редгрейв, Изабелла Росселлини, Питер Герети, Брайан Мюррей, Пол Хехт, Юэн Мортон-Описание: Экерли думал, что он не любитель собак, пока не приютил у себя невыносимую немецкую овчарку. Однако оказалось, что это именно тот друг, которого он искал всю жизнь…- [url=] [/url] релиз: -Качество: HDRip-AVC
Формат: MKV
Видео кодек: AVC
Аудио кодек: AC3
Видео: 1024x576 , 23,976 fps, ~1141 kbps avg, 0.081 bit/pixel
Аудио #1: [RUS] 48 kHz, AC3 Dolby Digital, 2/0 (L,R) ch, ~192 kbps
Аудио #2: [ENG] 48 kHz, AC3 Dolby Digital, 3/2 (L,C,R,l,r) + LFE ch, ~448 kbps
субтитры: английские
навигация по главам: 15 глав (именные) MediaInfo
Общее
Уникальный идентификатор : 214695513192135881641585999582676257401 (0xA184DA0E236197B68FBE823B70F60A79)
Полное имя : D:\My Dog Tulip\My Dog Tulip.2009.HDRip-AVC.mkv
Формат : Matroska
Версия формата : Version 4 / Version 2
Размер файла : 1,03 Гбайт
Продолжительность : 1 ч. 21 м.
Общий поток : 1817 Кбит/сек
Название фильма : My Dog Tulip.2009.HDRip-AVC -Azureus-
Дата кодирования : UTC 2016-02-03 21:47:27
Программа кодирования : mkvmerge v7.1.0 ('Good Love') 32bit built on Jul 27 2014 12:59:18
Библиотека кодирования : libebml v1.3.0 + libmatroska v1.4.1
DURATION : 01:21:25.984000000
NUMBER_OF_FRAMES : 152687
NUMBER_OF_BYTES : 117263616
_STATISTICS_WRITING_APP : mkvmerge v7.1.0 ('Good Love') 32bit built on Jul 27 2014 12:59:18
_STATISTICS_WRITING_DATE_UTC : 2016-02-03 21:47:27
_STATISTICS_TAGS : BPS DURATION NUMBER_OF_FRAMES NUMBER_OF_BYTES
Видео
Идентификатор : 1
Формат : AVC
Формат/Информация : Advanced Video Codec
Профиль формата : High@L4
Параметр CABAC формата : Да
Параметр ReFrames формата : 14 кадров
Идентификатор кодека : V_MPEG4/ISO/AVC
Продолжительность : 1 ч. 21 м.
Битрейт : 1141 Кбит/сек
Ширина : 1024 пикселя
Высота : 576 пикселей
Соотношение сторон : 16:9
Режим частоты кадров : Постоянный
Частота кадров : 23,976 кадра/сек
Цветовое пространство : YUV
Субдискретизация насыщенности : 4:2:0
Битовая глубина : 8 бит
Тип развёртки : Прогрессивная
Бит/(Пиксели*Кадры) : 0.081
Размер потока : 664 Мбайт (63%)
Библиотека кодирования : x264 core 130 r2273 b3065e6
Настройки программы : cabac=1 / ref=14 / deblock=1:-3:-3 / analyse=0x3:0x133 / me=umh / subme=9 / psy=1 / psy_rd=1.00:0.00 / mixed_ref=1 / me_range=32 / chroma_me=1 / trellis=2 / 8x8dct=1 / cqm=0 / deadzone=21,11 / fast_pskip=0 / chroma_qp_offset=-2 / threads=12 / lookahead_threads=3 / sliced_threads=0 / nr=0 / decimate=1 / interlaced=0 / bluray_compat=0 / constrained_intra=0 / bframes=16 / b_pyramid=2 / b_adapt=2 / b_bias=0 / direct=3 / weightb=1 / open_gop=0 / weightp=2 / keyint=240 / keyint_min=24 / scenecut=40 / intra_refresh=0 / rc_lookahead=50 / rc=crf / mbtree=1 / crf=15.0 / qcomp=0.60 / qpmin=0 / qpmax=69 / qpstep=4 / ip_ratio=1.40 / aq=1:2.00
Язык : English
Default : Да
Forced : Нет
Цветовой диапазон : Limited
Основные цвета : BT.709
Характеристики трансфера : BT.709
Коэффициенты матрицы : BT.709
Аудио #1
Идентификатор : 2
Формат : AC-3
Формат/Информация : Audio Coding 3
Расширение режима : CM (complete main)
Параметр Endianness формата : Big
Идентификатор кодека : A_AC3
Продолжительность : 1 ч. 21 м.
Вид битрейта : Постоянный
Битрейт : 192 Кбит/сек
Каналы : 2 канала
Расположение каналов : Front: L R
Частота : 48,0 КГц
Метод сжатия : С потерями
Размер потока : 112 Мбайт (11%)
Заголовок : DVO - студия Elrom
Язык : Russian
Default : Да
Forced : Нет
Аудио #2
Идентификатор : 3
Формат : AC-3
Формат/Информация : Audio Coding 3
Расширение режима : CM (complete main)
Параметр Endianness формата : Big
Идентификатор кодека : A_AC3
Продолжительность : 1 ч. 21 м.
Вид битрейта : Постоянный
Битрейт : 448 Кбит/сек
Каналы : 6 каналов
Расположение каналов : Front: L C R, Side: L R, LFE
Частота : 48,0 КГц
Метод сжатия : С потерями
Размер потока : 261 Мбайт (25%)
Заголовок : ENG
Язык : English
Default : Нет
Forced : Нет
Текст
Идентификатор : 4
Формат : UTF-8
Режим смешивания : zlib
Идентификатор кодека : S_TEXT/UTF8
Идентификатор кодека/Информация : UTF-8 Plain Text
Заголовок : eng sub
Язык : English
Default : Нет
Forced : Нет
Меню
00:00:00.000 : :Prologue
00:04:31.604 : :First Home
00:09:29.443 : :A Well-Formed Motion
00:15:17.249 : :Veterinarians
00:22:50.911 : :Nancy
00:29:39.152 : :Capt. Pugh
00:39:31.535 : :Urine
00:42:11.612 : :Max
00:52:20.846 : :Chum
00:56:54.828 : :Pugilist
00:59:20.390 : :Watney
01:03:13.331 : :Mon Repos
01:09:50.728 : :Dusty
01:16:27.624 : :Epilogue
01:19:10.203 : :End Credits
Скачать

Скачать торрент! Моя собака Тюльпан / My Dog Tulip (Пол Фирлингер / Paul Fierlinger, Сандра Фирлингер / Sandra Fierlinger) [2009, США, мультфильм для взрослых, драма, HDRip-AVC] DVO + Original (Eng) + Sub (eng)

Как скачивать? · Что такое торрент? · Рейтинг и ограничения

Сайт не распространяет и не хранит электронные версии произведений, а лишь предоставляет доступ к создаваемому пользователями каталогу ссылок на торрент-файлы, которые содержат только списки хеш-сумм

[Профиль] [ЛС]
Показать сообщения:    
Ответить на тему

Текущее время: Сегодня 21:09

Часовой пояс: GMT + 4



Вы не можете начинать темы
Вы не можете отвечать на сообщения
Вы не можете редактировать свои сообщения
Вы не можете удалять свои сообщения
Вы не можете голосовать в опросах
Вы не можете прикреплять файлы к сообщениям
Вы не можете скачивать файлы