Король Лев 2: Гордость Симбы / The Lion King II: Simba\'s Pride (Даррел Руни, Роб ЛаДука / Darrell Rooney, Rob LaDuka) [1998 г., приключения, семейный, мультфильм, BDRip-AVC] Dub + DVO (Карусель) + AVO (Живов, Антонов, Визгунов) + VO (Гланц)

Ответить на тему
 
Автор Сообщение

user ®

Стаж: 13 лет

Сообщений: 15041

Пост Пост: #1 от 04-Фев-2016 02:15

[Цитировать]

-Король Лев 2: Гордость Симбы / The Lion King II: Simba's Pride«The Circle of Life Continues...» Страна: США, Австралия
Студия: DisneyToon Studios, Walt Disney Animation Australia, Walt Disney Pictures
Жанр: мультфильм, мюзикл, мелодрама, приключения, семейный
Год выпуска: 1998
Продолжительность: 01:20:49-Перевод 1: Профессиональный (полное дублирование) BD EUR
Перевод 2: Профессиональный (двухголосый, закадровый) Карусель
Перевод 3: Студийный (одноголосый, закадровый) Петр Гланц
Перевод 4: Авторский (одноголосый, закадровый) Юрий Живов
Перевод 5: Авторский (одноголосый, закадровый) Николай Антонов [VHS]
Перевод 6: Авторский (одноголосый, закадровый) Сергей Визгунов [VHS]
Оригинальная аудиодорожка: английская
Субтитры: русские, украинские, английские
Режиссер: Даррел Руни, Роб ЛаДука / Darrell Rooney, Rob LaDuka
Роли озвучивали: Мэттью Бродерик, Мойра Келли, Нив Кэмпбелл, Лиз Колэуэй, Мишель Хорн, Эшли Эднер, Charity Sanoy, Сюзанн Плешетт, Энди Дик, Райан О’Донохью...
О мультфильме: Много времени утекло с тех пор, как лев Симба сверг своего злого дядю Шрама и вернул трон короля саванны. У него и королевы Налы уже подрастает дочь — принцесса Киара.
Однако порученная легкомысленным заботам наших старых знакомых Тимона и Пумбы, проказливая и непослушная Киара пока никак не похожа на будущую королеву. Однажды сбежав в Запретную Землю, она встречает там львенка Кову, который становится ее лучшим другом.
Да только принцесса не знает, что эта дружба может стоить ей короны! Кову — наследник Шрама, и пусть он не пошел в старого интригана, его мать Зира спит и видит, как бы усадить сына на трон.
И чем прочнее дружба между Киарой и Кову, тем гуще тучи над племенем Симбы…-
Сэмпл: скачать-Релиз от -
Автор рипа: Elheym
Качество: BDRip-AVC (источник: [url=http://***/forum/viewtopic.php?t=3807890]xfiles[/url] / Blu-ray Remux [The.Lion.King.2.Simba's.Pride.1998.1080p.BDRemux.rutracker] / 1080p)
Контейнер: MKV
Видео: 1152x648 (16:9), 23.976 fps, MPEG-4 AVC, ~2855 kbps avg, 0.160 bit/pixel
Аудио #1: Русский: AC3, 5.1, 48 kHz, ~448 Кбит/с | Профессиональный (полное дублирование) BD EUR |
Аудио #2: Русский: AC3, 5.1, 48 kHz, ~448 Кбит/с | Профессиональный (двухголосый, закадровый) Карусель |
Аудио #3: Русский: AC3, 5.1, 48 kHz, ~448 Кбит/с | Студийный (одноголосый, закадровый) Петр Гланц |
Аудио #4: Русский: AC3, 5.1, 48 kHz, ~448 Кбит/с | Авторский (одноголосый, закадровый) Юрий Живов |
Аудио #5: Русский: AC3, 2.0, 48 kHz, ~192 Кбит/с | Авторский (одноголосый, закадровый) Николай Антонов [VHS] |
Аудио #6: Русский: AC3, 2.0, 48 kHz, ~192 Кбит/с | Авторский (одноголосый, закадровый) Сергей Визгунов [VHS] |
Аудио #7: Английский: AC3, 5.1, 48 kHz, ~448 Кбит/с | Оригинал |
Субтитры: русские (полные), украинские (полные), английские (полные)
Главы: присутствуют, сохранены оригинальные
MediaInfo
Уникальный идентификатор : 197209637834592220716088196370255870912 (0x945D31D6BA62BC419E8610F084C47BC0)
Полное имя : The.Lion.King.II.Simba's.Pride.1998.BDRip-AVC.6xRus.Eng.-HQCLUB.mkv
Формат : Matroska
Версия формата : Version 2
Размер файла : 3,16 Гбайт
Продолжительность : 1 ч. 20 м.
Общий поток : 5590 Кбит/сек
Название фильма : Король Лев 2: Гордость Симбы / The Lion King II: Simba's Pride (1998) BDRip-AVC by Elheym [HQCLUB]
Дата кодирования : UTC 2016-02-02 16:02:27
Программа кодирования : mkvmerge v5.2.0 ('I can't explain') built on Dec 18 2011 18:12:03
Библиотека кодирования : libebml v1.2.3 + libmatroska v1.3.0
Обложка : Yes
Attachments : cover.jpg
Видео
Идентификатор : 1
Формат : AVC
Формат/Информация : Advanced Video Codec
Профиль формата : High@L4
Параметр CABAC формата : Да
Параметр ReFrames формата : 10 кадров
Идентификатор кодека : V_MPEG4/ISO/AVC
Продолжительность : 1 ч. 20 м.
Битрейт : 2855 Кбит/сек
Ширина : 1152 пикселя
Высота : 648 пикселей
Соотношение сторон : 16:9
Режим частоты кадров : Постоянный
Частота кадров : 23,976 (24000/1001) кадра/сек
Цветовое пространство : YUV
Субдискретизация насыщенности : 4:2:0
Битовая глубина : 8 бит
Тип развёртки : Прогрессивная
Бит/(Пиксели*Кадры) : 0.160
Размер потока : 1,61 Гбайт (51%)
Заголовок : Король Лев 2: Гордость Симбы / The Lion King II: Simba's Pride (1998) BDRip-AVC by Elheym [HQCLUB]
Библиотека кодирования : x264 core 148 r2665+53 6629127 t_mod_Custom [8-bit@all X86_64]
Настройки программы : cabac=1 / ref=10 / deblock=1:-1:-1 / analyse=0x3:0x113 / me=umh / subme=11 / psy=1 / fade_compensate=0.00 / psy_rd=0.50:0.00 / mixed_ref=1 / me_range=48 / chroma_me=1 / trellis=2 / 8x8dct=1 / cqm=0 / deadzone=21,11 / fast_pskip=0 / chroma_qp_offset=-2 / threads=6 / lookahead_threads=2 / sliced_threads=0 / nr=0 / decimate=1 / interlaced=0 / bluray_compat=0 / constrained_intra=0 / fgo=0 / bframes=13 / b_pyramid=2 / b_adapt=2 / b_bias=0 / direct=3 / weightb=1 / open_gop=0 / weightp=2 / keyint=240 / keyint_min=23 / scenecut=40 / intra_refresh=0 / rc_lookahead=60 / rc=crf / mbtree=1 / crf=19.1000 / qcomp=0.70 / qpmin=0:0:0 / qpmax=69:69:69 / qpstep=4 / vbv_maxrate=20000 / vbv_bufsize=25000 / crf_max=0.0 / nal_hrd=none / filler=0 / ip_ratio=1.40 / aq=3:0.50 / aq-sensitivity=10.00 / aq-factor=1.00:1.00:1.00 / aq2=0 / aq3=4:[0.50:0.50]:[0.50:0.50]:[0.50:0.50]:[0.50:0.50] / aq3-sensitivity=15.00 / aq3-factor=[1.00:1.00]:[1.00:1.00]:[1.00:1.00] / aq3-boundary=192:64:24 / zones=238,339,b=2.16/340,539,b=3.06/671,717,b=1.86/718,819,b=2.36/820,1025,b=2.26/1026,1133,b=2.26/1134,1301,b=1.76/1302,1519,b=1.96/1520,1532,b=1.76/1533,1683,b=1.86/1684,1841,b=2.06/1842,1895,b=2.34/1896,2089,b=1.74/2352,2491,b=1.84/2492,2571,b=1.94/2616,2689,b=2.64/2802,2851,b=1.64/2932,3183,b=2.64/3184,3597,b=1.74/3598,3889,b=2.04/3890,4221,b=1.74/4222,4768,b=1.94/4769,4945,b=1.74/4946,5074,b=1.24/5075,5104,b=2.14/5211,5453,b=1.74/5454,5777,b=2.64/5864,6077,b=2.94/6078,6539,b=1.94/6578,6839,b=2.34/6896,6987,b=2.34/7016,7155,b=1.74/7156,7845,b=1.94/7846,7997,b=2.34/8038,8574,b=2.54/9850,10670,b=1.76/11663,14509,b=1.42/14510,14687,b=1.72/ 14688,15159,b=1.53/15160,15241,b=2.22/15242,15663,b=2.02/15664,15717,b=1.52/15718,16039,b=2.22/16040,16457,b=1.52/16458,16839,b=2.22/16840,16961,b=1.52/16962,17431,b=2.02/17432,17615,b=1.62/17616,17729,b=1.92/17730,17903,b=2.22/17904,18015,b=2.42/18016,18371,b=1.62/18372,18438,b=1.72/18439,18687,b=1.52/18688,18749,b=1.82/18750,19953,b=1.92/19954,20639,b=1.82/20640,20974,b=1.52/20975,22926,b=1.62/22927,23144,b=2.22/30021,30302,b=2.17/30303,30856,b=2.27/30903,31230,b=2.67/31231,32677,b=1.57/32678,32702,b=4.57/32703,33294,b=1.57/33438,33564,b=2.77/33565,33778,b=2.37/33779,33896,b=2.97/34402,34976,b=2.24/34977,35099,b=3.24/36016,37589,b=1.69/37599,37646,b=3.72/37647,38672,b=1.72/39903,40070,b=1.92/40195,40665,b=1.74/41210,43931,b=1.74/44190,44435,b=3.24/45215,45446,b=1.94/46029,46238,b=2.48/46283,46432,b=1.98/46433,46508,b=3.58/46539,46768,b=1.88/46769,46800,b=4.58/46801,47032,b=1.98/47033,47116,b=4.58/47117,47210,b=2.68/47211,47286,b=2.78/47287,47330,b=3.58/47331,47452,b=2.28/47453,47682,b=1.88/47683,47816,b=2.48/47817,48206,b=2.58/48207,49258,b=1.88/49259,49350,b=2.88/49351,50327,b=1.88/50328,50375,b=2.88/50376,50629,b=1.88/50630,51406,b=2.58/51407,51698,b=1.88/51699,51971,b=2.38/51972,52188,b=1.88/52370,56174,b=1.62/61151,69695,b=1.67/70181,77224,b=1.76/77886,80158,b=1.84/92784,95519,b=1.70/98517,98543,b=2.20/98544,99040,b=2.10/101034,103918,b=1.64/104676,106796,b=1.76/106797,106953,b=2.66/106954,107969,b=1.76/107970,108201,b=2.49/108384,116280,b=0.58
Язык : English
Default : Да
Forced : Нет
Аудио #1
Идентификатор : 2
Формат : AC-3
Формат/Информация : Audio Coding 3
Расширение режима : CM (complete main)
Параметр Endianness формата : Big
Идентификатор кодека : A_AC3
Продолжительность : 1 ч. 20 м.
Вид битрейта : Постоянный
Битрейт : 448 Кбит/сек
Каналы : 6 каналов
Расположение каналов : Front: L C R, Side: L R, LFE
Частота : 48,0 КГц
Частота кадров : 31,250 кадров/сек (1536 spf)
Метод сжатия : С потерями
Размер потока : 259 Мбайт (8%)
Заголовок : АС3 5.1 @ 448 kbps - Dub, BD EUR
Язык : Russian
Default : Нет
Forced : Нет
Аудио #2
Идентификатор : 3
Формат : AC-3
Формат/Информация : Audio Coding 3
Расширение режима : CM (complete main)
Параметр Endianness формата : Big
Идентификатор кодека : A_AC3
Продолжительность : 1 ч. 20 м.
Вид битрейта : Постоянный
Битрейт : 448 Кбит/сек
Каналы : 6 каналов
Расположение каналов : Front: L C R, Side: L R, LFE
Частота : 48,0 КГц
Частота кадров : 31,250 кадров/сек (1536 spf)
Метод сжатия : С потерями
Размер потока : 259 Мбайт (8%)
Заголовок : АС3 5.1 @ 448 kbps - DVO, Karusel
Язык : Russian
Default : Нет
Forced : Нет
Аудио #3
Идентификатор : 4
Формат : AC-3
Формат/Информация : Audio Coding 3
Расширение режима : CM (complete main)
Параметр Endianness формата : Big
Идентификатор кодека : A_AC3
Продолжительность : 1 ч. 20 м.
Вид битрейта : Постоянный
Битрейт : 448 Кбит/сек
Каналы : 6 каналов
Расположение каналов : Front: L C R, Side: L R, LFE
Частота : 48,0 КГц
Частота кадров : 31,250 кадров/сек (1536 spf)
Метод сжатия : С потерями
Размер потока : 259 Мбайт (8%)
Заголовок : АС3 5.1 @ 448 kbps - AVO, Glanc
Язык : Russian
Default : Нет
Forced : Нет
Аудио #4
Идентификатор : 5
Формат : AC-3
Формат/Информация : Audio Coding 3
Расширение режима : CM (complete main)
Параметр Endianness формата : Big
Идентификатор кодека : A_AC3
Продолжительность : 1 ч. 20 м.
Вид битрейта : Постоянный
Битрейт : 448 Кбит/сек
Каналы : 6 каналов
Расположение каналов : Front: L C R, Side: L R, LFE
Частота : 48,0 КГц
Частота кадров : 31,250 кадров/сек (1536 spf)
Метод сжатия : С потерями
Размер потока : 259 Мбайт (8%)
Заголовок : АС3 5.1 @ 448 kbps - AVO, Zhivov
Язык : Russian
Default : Нет
Forced : Нет
Аудио #5
Идентификатор : 6
Формат : AC-3
Формат/Информация : Audio Coding 3
Расширение режима : CM (complete main)
Параметр Endianness формата : Big
Идентификатор кодека : A_AC3
Продолжительность : 1 ч. 20 м.
Вид битрейта : Постоянный
Битрейт : 192 Кбит/сек
Каналы : 2 канала
Расположение каналов : Front: L R
Частота : 48,0 КГц
Частота кадров : 31,250 кадров/сек (1536 spf)
Метод сжатия : С потерями
Размер потока : 111 Мбайт (3%)
Заголовок : АС3 2.0 @ 192 kbps - AVO, Antonov [VHS]
Язык : Russian
Default : Нет
Forced : Нет
Аудио #6
Идентификатор : 7
Формат : AC-3
Формат/Информация : Audio Coding 3
Расширение режима : CM (complete main)
Параметр Endianness формата : Big
Идентификатор кодека : A_AC3
Продолжительность : 1 ч. 20 м.
Вид битрейта : Постоянный
Битрейт : 192 Кбит/сек
Каналы : 2 канала
Расположение каналов : Front: L R
Частота : 48,0 КГц
Частота кадров : 31,250 кадров/сек (1536 spf)
Метод сжатия : С потерями
Размер потока : 111 Мбайт (3%)
Заголовок : АС3 2.0 @ 192 kbps - AVO, Vizgunov [VHS]
Язык : Russian
Default : Нет
Forced : Нет
Аудио #7
Идентификатор : 8
Формат : AC-3
Формат/Информация : Audio Coding 3
Расширение режима : CM (complete main)
Параметр Endianness формата : Big
Идентификатор кодека : A_AC3
Продолжительность : 1 ч. 20 м.
Вид битрейта : Постоянный
Битрейт : 448 Кбит/сек
Каналы : 6 каналов
Расположение каналов : Front: L C R, Side: L R, LFE
Частота : 48,0 КГц
Частота кадров : 31,250 кадров/сек (1536 spf)
Метод сжатия : С потерями
Размер потока : 259 Мбайт (8%)
Заголовок : АС3 5.1 @ 448 kbps - Original
Язык : English
Default : Нет
Forced : Нет
Текст #1
Идентификатор : 9
Формат : UTF-8
Идентификатор кодека : S_TEXT/UTF8
Идентификатор кодека/Информация : UTF-8 Plain Text
Заголовок : Full
Язык : Russian
Default : Нет
Forced : Нет
Текст #2
Идентификатор : 10
Формат : UTF-8
Идентификатор кодека : S_TEXT/UTF8
Идентификатор кодека/Информация : UTF-8 Plain Text
Заголовок : Full
Язык : Ukrainian
Default : Нет
Forced : Нет
Текст #3
Идентификатор : 11
Формат : UTF-8
Идентификатор кодека : S_TEXT/UTF8
Идентификатор кодека/Информация : UTF-8 Plain Text
Заголовок : Full
Язык : English
Default : Нет
Forced : Нет
Меню
00:00:00.000 : :Chapter 01
00:03:33.129 : :Chapter 02
00:05:39.005 : :Chapter 03
00:09:16.054 : :Chapter 04
00:14:21.068 : :Chapter 05
00:19:09.690 : :Chapter 06
00:21:48.181 : :Chapter 07
00:26:53.902 : :Chapter 08
00:31:02.944 : :Chapter 09
00:33:00.478 : :Chapter 10
00:39:56.268 : :Chapter 11
00:44:47.101 : :Chapter 12
00:45:40.446 : :Chapter 13
00:50:37.951 : :Chapter 14
00:56:15.830 : :Chapter 15
00:59:51.546 : :Chapter 16
01:01:24.389 : :Chapter 17
01:05:01.439 : :Chapter 18
01:12:54.119 : :Chapter 19
01:15:20.515 : :Chapter 20
01:20:49.594 : :Chapter 21
x264 log
x264 [info]: frame I:972 Avg QP:11.65 size:123500
x264 [info]: frame P:30572 Avg QP:16.16 size: 28970
x264 [info]: frame B:84736 Avg QP:17.96 size: 9325
x264 [info]: consecutive B-frames: 3.2% 4.2% 20.0% 31.4% 23.9% 9.9% 2.4% 0.9% 1.2% 0.5% 0.7% 0.6% 0.4% 0.5%
x264 [info]: ref P L0: 48.1% 3.1% 18.5% 8.0% 5.9% 5.0% 4.0% 2.5% 2.2% 2.1% 0.6% 0.0%
x264 [info]: ref B L0: 65.5% 14.2% 7.7% 3.8% 2.9% 2.3% 2.0% 1.0% 0.6%
x264 [info]: ref B L1: 91.1% 8.9%
Скриншоты Сравнения с исходником
Источник- -Рип-
Цитата:
- Спасибо multmir за чистый голос Юрия Живова.
- Спасибо sergey_n за выделенные голоса "Карусель".
- Спасибо -Доцент- за 5.1 дорожку с переводом Петра Гланца.
- Спасибо sk1987 за VHS дорожку с переводом Сергея Визгунова.
- Спасибо Myline за оцифровку дорожки с VHS с переводом "Николая Антонова".
Скачать

Скачать торрент! Король Лев 2: Гордость Симбы / The Lion King II: Simba\'s Pride (Даррел Руни, Роб ЛаДука / Darrell Rooney, Rob LaDuka) [1998 г., приключения, семейный, мультфильм, BDRip-AVC] Dub + DVO (Карусель) + AVO (Живов, Антонов, Визгунов) + VO (Гланц)

Как скачивать? · Что такое торрент? · Рейтинг и ограничения

Сайт не распространяет и не хранит электронные версии произведений, а лишь предоставляет доступ к создаваемому пользователями каталогу ссылок на торрент-файлы, которые содержат только списки хеш-сумм

[Профиль] [ЛС]
Показать сообщения:    
Ответить на тему

Текущее время: Сегодня 20:25

Часовой пояс: GMT + 4



Вы не можете начинать темы
Вы не можете отвечать на сообщения
Вы не можете редактировать свои сообщения
Вы не можете удалять свои сообщения
Вы не можете голосовать в опросах
Вы не можете прикреплять файлы к сообщениям
Вы не можете скачивать файлы