Иван Царевич и Серый Волк 3 (Дарина Шмидт) [2015, Мультфильм, приключения, семейный, WEB-DLRip]

Ответить на тему
 
Автор Сообщение

user ®

Стаж: 7 лет 7 месяцев

Сообщений: 20008

Пост Пост: #1 от 02-Фев-2016 05:54

[Цитировать]

Иван Царевич и Серый Волк 3- Год выпуска: 2015
Выпущено: Россия / Кинокомпания СТВ, Анимационная студия Мельница
Жанр: мультфильм, комедия, приключения, фэнтези
Продолжительность: 01:14:01
Перевод: Не требуется
Субтитры: нет-Режиссёр:
Дарина Шмидт-В ролях:
Никита Ефремов, Иван Охлобыстин, Михаил Боярский, Артур Смольянинов, Татьяна Бунина, Михаил Хрусталев, Дмитрий Высоцкий, Олег Куликович, Анатолий Петров, Роман Никитин-Описание:
Царь Тридевятого царства, в честь своего 150-летия решил, что с него хватит — пора на заслуженный отдых. «Я устал. Я ухожу», — заявил самодержец и с удочкой и ведёрком удалился в деревенскую глушь. А оберегать государство остались Иван с Серым Волком. Вот только Василиса, жена Ивана, заявила, что свадебного путешествия у неё не было, заграницу она не видела, «постить» в инстаграм решительно нечего и вообще.
Иван спорить не стал, а вместе с Василисой, Котом — ученым и Серым Волком, погрузился на ковер-самолет и отправился в путь. А за главного в стране герои оставили самое обычное огородное пугало… Но пока компания шаталась по Миланам и Парижам, Пугало ожило и начало наводить свои порядки в Тридевятом царстве…-Релиз групп [url=http://***/forum/viewtopic.php?t=1677970] [/url] | | КиноПоиск | Сэмпл |-Качество: WEB-DLRip [WEB-DL | 1080p]
Формат: AVI
Видео: 704x400 (1.76:1), 25 fps, XviD build 67 ~2107 kbps avg, 0.30 bit/pixel
Аудио: 48 kHz, AC3 Dolby Digital, 2/0 (L,R) ch, ~224 kbps - iTunes Russia
-Скриншоты MediaInfo
Общее
Полное имя                               : D:\Ivan_Carevich_i_seryi_volk_3_2015_WEB-DLRip_by_Dalemake.avi
Формат                                   : AVI
Формат/Информация                        : Audio Video Interleave
Размер файла                             : 1,21 Гбайт
Продолжительность                        : 1 ч. 14 м.
Общий поток                              : 2341 Кбит/сек
Программа кодирования                    : VirtualDubMod 1.5.10.3 | www.virtualdub-fr.org || (build 2550/release)
Библиотека кодирования                   : VirtualDubMod build 2550/release
Видео
Идентификатор                            : 0
Формат                                   : MPEG-4 Visual
Профиль формата                          : Advanced Simple@L5
Параметр BVOP формата                    : 2
Параметр QPel формата                    : Нет
Параметр GMC формата                     : Без точки перехода
Параметр матрицы формата                 : Выборочная
Идентификатор кодека                     : XVID
Идентификатор кодека/Подсказка           : XviD
Продолжительность                        : 1 ч. 14 м.
Битрейт                                  : 2108 Кбит/сек
Ширина                                   : 704 пикселя
Высота                                   : 400 пикселей
Соотношение сторон                       : 16:9
Частота кадров                           : 25,000 кадров/сек
Цветовое пространство                    : YUV
Субдискретизация насыщенности            : 4:2:0
Битовая глубина                          : 8 бит
Тип развёртки                            : Прогрессивная
Метод сжатия                             : С потерями
Бит/(Пиксели*Кадры)                      : 0.299
Размер потока                            : 1,09 Гбайт (90%)
Библиотека кодирования                   : XviD 67
Аудио
Идентификатор                            : 1
Формат                                   : AC-3
Формат/Информация                        : Audio Coding 3
Расширение режима                        : CM (complete main)
Параметр Endianness формата              : Big
Идентификатор кодека                     : 2000
Продолжительность                        : 1 ч. 14 м.
Вид битрейта                             : Постоянный
Битрейт                                  : 224 Кбит/сек
Каналы                                   : 2 канала
Расположение каналов                     : Front: L R
Частота                                  : 48,0 КГц
Битовая глубина                          : 16 бит
Метод сжатия                             : С потерями
Размер потока                            : 119 Мбайт (10%)
Выравнивание                             : Разделение по промежуткам
Продолжительность промежутка             : 40  мс. (1,00 видеокадр)
Время предзагрузки промежутка            : 500  мс.
-
Скачать

Скачать торрент!

Как скачивать? · Что такое торрент? · Рейтинг и ограничения

Сайт не распространяет и не хранит электронные версии произведений, а лишь предоставляет доступ к создаваемому пользователями каталогу ссылок на торрент-файлы, которые содержат только списки хеш-сумм

[Профиль] [ЛС]
Показать сообщения:    
Ответить на тему

Текущее время: Сегодня 23:15

Часовой пояс: GMT + 4



Вы не можете начинать темы
Вы не можете отвечать на сообщения
Вы не можете редактировать свои сообщения
Вы не можете удалять свои сообщения
Вы не можете голосовать в опросах
Вы не можете прикреплять файлы к сообщениям
Вы не можете скачивать файлы