История любви Джаянты Бхая / Jayantabhai Ki Luv Story (Виннил Маркан / Vinnil Markan) [2013, Индия, Боевик, мелодрама, комедия, DVDRip] MVO (Zee Tv)

Ответить на тему
 
Автор Сообщение

user ®

Стаж: 12 лет

Сообщений: 15092

Пост Пост: #1 от 29-Янв-2016 02:57

[Цитировать]

История любви Джаянты Бхая / Jayantabhai Ki Luv Story
Страна: Индия
Жанр: Боевик, мелодрама, комедия
Год выпуска: 2013
Продолжительность: 02:05:37
Перевод: Профессиональный (многоголосый закадровый) Zee Tv
Cубтитры: нет
Режиссер: Виннил Маркан / Vinnil Markan
В ролях: Вивек Оберой, Неха Шарма, Шишир Шарма, Нассер, Закир Хуссейн, Рахул Сингх
Описание: Красавица Симран приезжает из провинциального индийского городка в Мумбаи, где устраивается на хорошую работу. Живёт она в неплохой квартирке в тихом районе, и, кажется, её жизнь налажена и спокойна. Вот только с работы её вскоре увольняют, и теперь ей придётся искать жильё себе по средствам, поэтому она снимает квартиру в криминальном местечке. По соседству с ней живёт гангстер и уличный бандит Джаянта, он уверен, что все должны его бояться. Здесь он контролирует мелких воришек, карманников, уличных наркодиллеров, а сам является членом преступной группировки...
Доп. информация: Запись и сведение звука : oktober
Сэмпл: http://multi-up.com/1086418
Качество видео: DVDRip
Формат видео: AVI
Видео: XviD build 50, 720x304 (2.37:1), 23.976 fps, 1462 kbps avg
Аудио: MPEG Layer 3, 48 kHz, 2/0 (L,R) ch, 192.00 kbps
MediaInfo
General
Complete name : F:\Istoriya.lubvi.Jayanty.Bhaya.2013.DVDRip.avi
Format : AVI
Format/Info : Audio Video Interleave
File size : 1.46 GiB
Duration : 2h 5mn
Overall bit rate : 1 664 Kbps
Writing application : VirtualDubMod 1.5.10.2 (build 2540/release)
Writing library : VirtualDubMod build 2540/release
Video
ID : 0
Format : MPEG-4 Visual
Format profile : AdvancedSimple@L5
Format settings, BVOP : Yes
Format settings, QPel : No
Format settings, GMC : No warppoints
Format settings, Matrix : Custom
Codec ID : XVID
Codec ID/Hint : XviD
Duration : 2h 5mn
Bit rate : 1 463 Kbps
Width : 720 pixels
Height : 304 pixels
Display aspect ratio : 2.35
Frame rate : 23.976 fps
Resolution : 24 bits
Colorimetry : 4:2:0
Scan type : Progressive
Bits/(Pixel*Frame) : 0.279
Stream size : 1.28 GiB (88%)
Writing library : XviD 1.2.1 (UTC 2008-12-04)
Audio
ID : 1
Format : MPEG Audio
Format version : Version 1
Format profile : Layer 3
Codec ID : 55
Codec ID/Hint : MP3
Duration : 2h 5mn
Bit rate mode : Constant
Bit rate : 192 Kbps
Channel(s) : 2 channels
Sampling rate : 48.0 KHz
Resolution : 16 bits
Stream size : 173 MiB (12%)
Alignment : Aligned on interleaves
Interleave, duration : 42 ms (1.00 video frame)
Interleave, preload duration : 504 ms
Writing library : LAME3.97
Скриншот c названием фильма Скриншоты
Скачать

Скачать торрент! История любви Джаянты Бхая / Jayantabhai Ki Luv Story (Виннил Маркан / Vinnil Markan) [2013, Индия, Боевик, мелодрама, комедия, DVDRip] MVO (Zee Tv)

Как скачивать? · Что такое торрент? · Рейтинг и ограничения

Сайт не распространяет и не хранит электронные версии произведений, а лишь предоставляет доступ к создаваемому пользователями каталогу ссылок на торрент-файлы, которые содержат только списки хеш-сумм

[Профиль] [ЛС]

stepanova69

Стаж: 4 года 10 месяцев

Сообщений: 1

Пост Пост: #2 от 02-Мар-2017 21:21 (спустя 1 год 1 месяц)

[Цитировать]

Фильм смотрела в онлайне мне очень поноавился и захотела его скачать спасибо за то что его можно тут скачать
[Профиль] [ЛС]
Показать сообщения:    
Ответить на тему

Текущее время: Сегодня 11:05

Часовой пояс: GMT + 4



Вы не можете начинать темы
Вы не можете отвечать на сообщения
Вы не можете редактировать свои сообщения
Вы не можете удалять свои сообщения
Вы не можете голосовать в опросах
Вы не можете прикреплять файлы к сообщениям
Вы не можете скачивать файлы