Город героев / Big Hero 6 (Дон Холл / Don Hall, Крис Уильямс / Chris Williams) [2014, фантастика, комедия, семейный BDRip-AVC] DUB (Rus) + ENG + Subs

Ответить на тему
 
Автор Сообщение

user ®

Стаж: 13 лет

Сообщений: 15041

Пост Пост: #1 от 27-Янв-2016 06:03

[Цитировать]


Город героев
Big Hero 6
- Страна: США (Walt Disney Animation Studios)
Жанр: фантастика, комедия, семейный
Продолжительность: 01:41:52
Год выпуска: 2014
Перевод: Профессиональный (дублированный) [Rus]
Русские субтитры: есть-Режиссёр: Дон Холл / Don Hall, Крис Уильямс / Chris Williams
Роли озвучивали: Райан Поттер, Скотт Эдсит, Дэниэл Хенни, ТиДжей Миллер, Джейми Чанг, Дэймон Уайанс мл., Дженезис Родригез, Джеймс Кромуэлл, Алан Тьюдик, Майя Рудольф-Роли дублировали: Даниил Рагин, Максим Сергеев, Игорь Сергеев, Валерий Смекалов, Аделина Червякова-ОписаниеЮный Хиро Хамада — прирожденный изобретатель и гений конструирования роботов. Вместе со старшим братом Тадаши они воплощают в жизнь самые передовые идеи в Техническом университете города будущего Сан-Франсокио. После серии загадочных событий друзья оказываются в центре коварного заговора. Отчаявшись, Хиро решает использовать веселого и добродушного экспериментального робота Бэймакса, перепрограммировав его в неуязвимую боевую машину.- Релиз: -
«Город героев» (англ. Big Hero 6) — американский трёхмерный компьютерный анимационный фильм 2014 года, созданный студией «Walt Disney Animation Studios» и выпущенный кинокомпанией «Walt Disney Pictures». Основан на одноимённых персонажах[en] комиксов издательства Marvel

Оскар, 2015 год
Победитель (1):
Лучший анимационный фильм

Качество: BDRip-AVC Big.Hero.6.2014.1080p.BluRay.AVC.DTS-HD.MA.7.1-RARBG
Формат: MKV
Видео: AVC 1317 Kbps 880 x 368 (2.391) 23.976 fps
Аудио 1: AC-3 384 Kbps 6 channels, 48.0 KHz Rus
Аудио 2: AC-3 384 Kbps 6 channels, 48.0 KHz Eng
Субтитры: Rus [Full], Ukr [Forced, Full], Eng [Ful, SDH]
Скриншоты MI | Log
Log
x264 [info]: frame I:1235 Avg QP:15.48 size: 49391
x264 [info]: frame P:34266 Avg QP:17.41 size: 14924
x264 [info]: frame B:111057 Avg QP:20.30 size: 4183
x264 [info]: consecutive B-frames: 3.3% 3.2% 8.2% 29.0% 17.1% 26.0% 4.7% 3.5% 1.6% 1.2% 0.5% 0.6% 0.3% 0.4% 0.5%
x264 [info]: mb I I16..4: 6.3% 64.3% 29.4%
x264 [info]: mb P I16..4: 1.0% 9.7% 2.8% P16..4: 28.8% 32.8% 13.0% 2.9% 0.4% skip: 8.7%
x264 [info]: mb B I16..4: 0.1% 1.0% 0.3% B16..8: 29.6% 18.0% 3.3% direct: 3.6% skip:44.0% L0:41.4% L1:45.5% BI:13.2%
x264 [info]: 8x8 transform intra:70.8% inter:54.1%
x264 [info]: direct mvs spatial:99.9% temporal:0.1%
x264 [info]: coded y,uvDC,uvAC intra: 89.9% 89.6% 72.8% inter: 15.8% 16.5% 6.2%
x264 [info]: i16 v,h,dc,p: 9% 16% 3% 71%
x264 [info]: i8 v,h,dc,ddl,ddr,vr,hd,vl,hu: 8% 10% 5% 10% 13% 12% 14% 12% 15%
x264 [info]: i4 v,h,dc,ddl,ddr,vr,hd,vl,hu: 9% 11% 3% 9% 15% 13% 14% 11% 14%
x264 [info]: i8c dc,h,v,p: 37% 27% 18% 18%
x264 [info]: Weighted P-Frames: Y:4.8% UV:3.6%
x264 [info]: ref P L0: 49.0% 9.2% 16.1% 6.0% 4.6% 3.5% 3.0% 1.6% 1.5% 1.3% 1.2% 1.0% 1.0% 1.0% 0.2% 0.0%
x264 [info]: ref B L0: 73.2% 10.9% 5.3% 2.7% 1.9% 1.6% 1.3% 0.8% 0.7% 0.6% 0.5% 0.3% 0.2%
x264 [info]: ref B L1: 92.5% 7.5%
x264 [info]: kb/s:1357.08
x264 [total]: encoded 146558 frames, 13.38 fps, 1357.08 kb/s, duration 3:02:33.72
Format : Matroska
Format version : Version 4 / Version 2
File size : 1.51 GiB
Duration : 1h 41mn
Overall bit rate : 2 128 Kbps
Encoded date : UTC 2016-01-26 18:46:27
Writing application : mkvmerge v6.7.0 ('Back to the Ground') 32bit built on Jan 8 2014 15:03:17
Writing library : libebml v1.3.0 + libmatroska v1.4.1
Video
ID : 1
Format : AVC
Format/Info : Advanced Video Codec
Format profile : High@L4.1
Format settings, CABAC : Yes
Format settings, ReFrames : 14 frames
Codec ID : V_MPEG4/ISO/AVC
Duration : 1h 41mn
Bit rate : 1 317 Kbps
Width : 880 pixels
Height : 368 pixels
Display aspect ratio : 2.40:1
Frame rate mode : Constant
Frame rate : 23.976 fps
Color space : YUV
Chroma subsampling : 4:2:0
Bit depth : 8 bits
Scan type : Progressive
Bits/(Pixel*Frame) : 0.170
Stream size : 960 MiB (62%)
Title : Big Hero 6 (2014) [***]
Writing library : x264 core 148 r2638kMod 7599210
Encoding settings : cabac=1 / ref=14 / deblock=1:-2:-1 / analyse=0x3:0x133 / me=umh / subme=11 / psy=1 / fade_compensate=0.00 / psy_rd=1.00:0.05 / mixed_ref=1 / me_range=48 / chroma_me=1 / trellis=2 / 8x8dct=1 / cqm=0 / deadzone=21,11 / fast_pskip=0 / chroma_qp_offset=-3 / threads=11 / lookahead_threads=2 / sliced_threads=0 / nr=0 / decimate=1 / interlaced=0 / bluray_compat=0 / constrained_intra=0 / fgo=0 / bframes=14 / b_pyramid=2 / b_adapt=2 / b_bias=0 / direct=3 / weightb=1 / open_gop=0 / weightp=2 / keyint=250 / keyint_min=23 / scenecut=40 / intra_refresh=0 / rc_lookahead=60 / rc=crf / mbtree=0 / crf=17.7000 / qcomp=0.60 / qpmin=0 / qpmax=69 / qpstep=4 / vbv_maxrate=50000 / vbv_bufsize=62500 / crf_max=0.0 / nal_hrd=none / filler=0 / ip_ratio=1.40 / pb_ratio=1.30 / aq=3:0.90
Language : English
Default : Yes
Forced : No
Audio #1
ID : 2
Format : AC-3
Format/Info : Audio Coding 3
Mode extension : CM (complete main)
Format settings, Endianness : Big
Codec ID : A_AC3
Duration : 1h 41mn
Bit rate mode : Constant
Bit rate : 384 Kbps
Channel(s) : 6 channels
Channel positions : Front: L C R, Side: L R, LFE
Sampling rate : 48.0 KHz
Compression mode : Lossy
Stream size : 280 MiB (18%)
Title : DUB [Blu-ray]
Language : Russian
Default : Yes
Forced : No
Audio #2
ID : 3
Format : AC-3
Format/Info : Audio Coding 3
Mode extension : CM (complete main)
Format settings, Endianness : Big
Codec ID : A_AC3
Duration : 1h 41mn
Bit rate mode : Constant
Bit rate : 384 Kbps
Channel(s) : 6 channels
Channel positions : Front: L C R, Side: L R, LFE
Sampling rate : 48.0 KHz
Compression mode : Lossy
Stream size : 280 MiB (18%)
Title : Original
Language : English
Default : No
Forced : No
Text #1
ID : 4
Format : UTF-8
Codec ID : S_TEXT/UTF8
Codec ID/Info : UTF-8 Plain Text
Title : Full
Language : Russian
Default : No
Forced : No
Text #2
ID : 5
Format : UTF-8
Codec ID : S_TEXT/UTF8
Codec ID/Info : UTF-8 Plain Text
Title : Forced
Language : Ukrainian
Default : No
Forced : No
Text #3
ID : 6
Format : UTF-8
Codec ID : S_TEXT/UTF8
Codec ID/Info : UTF-8 Plain Text
Title : Full
Language : Ukrainian
Default : No
Forced : No
Text #4
ID : 7
Format : UTF-8
Codec ID : S_TEXT/UTF8
Codec ID/Info : UTF-8 Plain Text
Title : Full
Language : English
Default : No
Forced : No
Text #5
ID : 8
Format : UTF-8
Codec ID : S_TEXT/UTF8
Codec ID/Info : UTF-8 Plain Text
Title : SDH
Language : English
Default : No
Forced : No
Menu
00:00:00.000 : en: 1. Hustle
00:07:15.685 : en: 2. Nerd School
00:14:37.835 : en: 3. Showcase
00:21:49.183 : en: 4. Tragedy
00:24:32.888 : en: 5. A New Friend
00:29:34.731 : en: 6. Being Helpful
00:36:58.091 : en: 7. Upgrade
00:44:18.322 : en: 8. The Chase
00:50:49.088 : en: 9. Fred's House
00:54:33.020 : en:10. Training
01:00:44.140 : en:11. Secret Lair
01:07:12.612 : en:12. Big Reveal
01:11:54.644 : en:13. Putting It All Together
01:16:26.665 : en:14. Saving The Day!
01:24:44.162 : en:15. The Portal
01:31:52.757 : en:16. End Credits
Скачать

Скачать торрент! Город героев / Big Hero 6 (Дон Холл / Don Hall, Крис Уильямс / Chris Williams) [2014, фантастика, комедия, семейный BDRip-AVC] DUB (Rus) + ENG + Subs

Как скачивать? · Что такое торрент? · Рейтинг и ограничения

Сайт не распространяет и не хранит электронные версии произведений, а лишь предоставляет доступ к создаваемому пользователями каталогу ссылок на торрент-файлы, которые содержат только списки хеш-сумм

[Профиль] [ЛС]
Показать сообщения:    
Ответить на тему

Текущее время: Сегодня 01:21

Часовой пояс: GMT + 4



Вы не можете начинать темы
Вы не можете отвечать на сообщения
Вы не можете редактировать свои сообщения
Вы не можете удалять свои сообщения
Вы не можете голосовать в опросах
Вы не можете прикреплять файлы к сообщениям
Вы не можете скачивать файлы