Последний друид: Войны гармов / Garm Wars: The Last Druid (Мамору Осии / Mamoru Oshii) [2014, Канада, Япония, фантастика, боевик, триллер, BDRip 1080p] Sub Rus + Original Eng

Ответить на тему
 
Автор Сообщение

user ®

Стаж: 7 лет 7 месяцев

Сообщений: 20008

Пост Пост: #1 от 26-Янв-2016 03:03

[Цитировать]

Последний друид: Войны гармов / Garm Wars: The Last Druid
Страна: Япония, Канада
Студия: I.G. Production
Жанр: Фантастика, АртХаус, Sci-Fi
Год выпуска: 2014
Продолжительность: 1:32:00
Перевод: Субтитры (KU-NU)
Cубтитры: русские srt
Оригинальная аудиодорожка: английский
Режиссер: Мамору Осии / Mamoru Oshii
В ролях: Лэнс Хенриксен
Кевин Дюран
Мелани Сен-Пьерр
Саммер Х. Хауэлл
Доун Форд
Эндрю Гиллис
Джордан Дик
Дэвид-Александр Куатё
Описание: Вокруг нашей планеты вращается планета Аннун. На ней идёт непрерывная война, вся планета в руинах. Ни кто не помнит когда всё это началось и из за чего. Трое из враждующих племён, оказались отключенными от всеобщей сети. И отправились выяснять, кто создал систему, сеть и их самих. А вместе с ними, и мы узнаём, какое творение у наших создателей было перед нами. Когда они смотрят на небо, то видят нашу землю...
Сэмпл: https://www.sendspace.com/file/50gllm
Тип релиза: BDRip 1080p
Контейнер: MKV
Видео: AVC / 1920x816 / 16:9 / 23.976fps / 8678 Кбит/сек / High@L4.1
Аудио: DTS / 48.0 KHz / 6ch. / 1509kbps / 24bit / original eng
MediaInfo
Общее
Уникальный идентификатор : 193483756067119150480874226886807305873 (0x918F9DAF4E843426A8775C9C9D7EBE91)
Полное имя : D:\Mamoru Oshii - Garm Wars The Last Druid - 2014 - BDrip 1080p orig rusub.mkv
Формат : Matroska
Версия формата : Version 4 / Version 2
Размер файла : 6,55 Гбайт
Продолжительность : 1 ч. 32 м.
Общий поток : 10,2 Мбит/сек
Дата кодирования : UTC 2016-01-22 16:27:55
Программа кодирования : mkvmerge v6.3.0 ('You can't stop me!') built on Jun 28 2013 20:09:41
Библиотека кодирования : libebml v1.3.0 + libmatroska v1.4.0
Видео
Идентификатор : 1
Формат : AVC
Формат/Информация : Advanced Video Codec
Профиль формата : High@L4.1
Параметр CABAC формата : Да
Параметр ReFrames формата : 5 кадров
Идентификатор кодека : V_MPEG4/ISO/AVC
Продолжительность : 1 ч. 32 м.
Битрейт : 8678 Кбит/сек
Ширина : 1920 пикселей
Высота : 816 пикселей
Соотношение сторон : 2,35:1
Режим частоты кадров : Постоянный
Частота кадров : 24,000 кадра/сек
Цветовое пространство : YUV
Субдискретизация насыщенности : 4:2:0
Битовая глубина : 8 бит
Тип развёртки : Прогрессивная
Бит/(Пиксели*Кадры) : 0.231
Размер потока : 5,45 Гбайт (83%)
Библиотека кодирования : x264 core 148 r2638 7599210
Настройки программы : cabac=1 / ref=5 / deblock=1:1:1 / analyse=0x3:0x133 / me=umh / subme=8 / psy=1 / psy_rd=1.00:0.00 / mixed_ref=1 / me_range=16 / chroma_me=1 / trellis=1 / 8x8dct=1 / cqm=0 / deadzone=21,11 / fast_pskip=0 / chroma_qp_offset=-2 / threads=12 / lookahead_threads=2 / sliced_threads=0 / nr=0 / decimate=1 / interlaced=0 / bluray_compat=0 / constrained_intra=0 / bframes=3 / b_pyramid=2 / b_adapt=2 / b_bias=0 / direct=3 / weightb=1 / open_gop=0 / weightp=2 / keyint=240 / keyint_min=24 / scenecut=40 / intra_refresh=0 / rc_lookahead=50 / rc=2pass / mbtree=1 / bitrate=8678 / ratetol=1.0 / qcomp=0.60 / qpmin=0 / qpmax=69 / qpstep=4 / cplxblur=20.0 / qblur=0.5 / ip_ratio=1.40 / aq=1:1.00
Язык : Japanese
Default : Да
Forced : Нет
Аудио
Идентификатор : 2
Формат : DTS
Формат/Информация : Digital Theater Systems
Режим : 16
Параметр Endianness формата : Big
Идентификатор кодека : A_DTS
Продолжительность : 1 ч. 32 м.
Вид битрейта : Постоянный
Битрейт : 1509 Кбит/сек
Каналы : 6 каналов
Расположение каналов : Front: L C R, Side: L R, LFE
Частота : 48,0 КГц
Битовая глубина : 24 бит
Метод сжатия : С потерями
Размер потока : 994 Мбайт (15%)
Заголовок : Original
Язык : English
Default : Да
Forced : Нет
Текст
Идентификатор : 3
Формат : UTF-8
Идентификатор кодека : S_TEXT/UTF8
Идентификатор кодека/Информация : UTF-8 Plain Text
Заголовок : RU (KU-NU)
Язык : Russian
Default : Да
Forced : Нет
Меню
00:00:00.000 : en:00:00:00.000
00:10:08.667 : en:00:10:08.667
00:17:42.500 : en:00:17:42.500
00:25:49.500 : en:00:25:49.500
00:34:47.875 : en:00:34:47.875
00:46:43.917 : en:00:46:43.917
00:59:50.167 : en:00:59:50.167
01:12:45.542 : en:01:12:45.542
01:25:29.000 : en:01:25:29.000
Скриншоты меню Скриншоты
Скачать

Скачать торрент!

Как скачивать? · Что такое торрент? · Рейтинг и ограничения

Сайт не распространяет и не хранит электронные версии произведений, а лишь предоставляет доступ к создаваемому пользователями каталогу ссылок на торрент-файлы, которые содержат только списки хеш-сумм

[Профиль] [ЛС]
Показать сообщения:    
Ответить на тему

Текущее время: Сегодня 06:15

Часовой пояс: GMT + 4



Вы не можете начинать темы
Вы не можете отвечать на сообщения
Вы не можете редактировать свои сообщения
Вы не можете удалять свои сообщения
Вы не можете голосовать в опросах
Вы не можете прикреплять файлы к сообщениям
Вы не можете скачивать файлы