Индрани / Indrani (Нирен Лахири / Niren Lahiri) [1958, Индия, Драма, мелодрама, DVDRip] VO (Бахурани) + Sub Rus (на песни)

Ответить на тему
 
Автор Сообщение

user ®

Стаж: 12 лет

Сообщений: 15092

Пост Пост: #1 от 24-Янв-2016 02:27

[Цитировать]

Индрани / Indrani
Страна: Индия
Жанр: Драма, мелодрама
Год выпуска: 1958
Продолжительность: 01:53:47
Перевод: Одноголосый закадровый Бахурани
Cубтитры: русские (внешние, только на тексты песен)
Режиссер: Нирен Лахири / Niren Lahiri
В ролях: Сучитра Сен, Уттам Кумар, Чхаби Бисвас, Тарун Кумар, Пахари Сунаял, Чандработи Деби, Апарна Деби, Тулси Чакраборти, Джибан Басу, Намита Синха, Тапати Гхош
Описание: Молодые люди знакомятся, влюбляются, вступают в брак без родительского позволения. Обычная история. Жизнь в доме мужа становится невыносимой и молодожены начинают самостоятельную жизнь. Но на этом пути их ожидают еще большие испытания, чем в доме жестокосердной родни...
Доп. информация:
Озвучка: Бахурани (Спасибо!)
Перевод субтитров, материалы: larisa_k (Спасибо!)
Релиз, работа с аудио, перевод песен: керелис (Спасибо!)
Отдельная благодарность Марие Паниновой и Марине Комаровой за консультации.
Интересно
Интермедиат : уровень образования в гуманитарных науках (политология, социальные науки, литература). Это учёба после 10 классов школы. Длится два года в высшей школе или колледже. После этой стадии человек идёт учиться три года на бакалавра in arts (BA). А затем на магистра ещё два года (Master in arts).
Сэмпл: http://multi-up.com/1085502
Качество видео: DVDRip
Формат видео: AVI
Видео: DivX Codec 4.x, 480x360 (1.33:1), 23.976 fps, 860 kbps avg
Аудио: AC3 Dolby Digital, 48 kHz, 2/0 (L,R) ch, 192.00 kbps
MediaInfo
General
Complete name : F:\Indrani.1958.DVDRip.DivX.BWTorrents\Indrani.1958.DVDRip.DivX.BWTorrents.avi
Format : AVI
Format/Info : Audio Video Interleave
File size : 864 MiB
Duration : 1h 53mn
Overall bit rate : 1 062 Kbps
Writing application : Lavf52.32.0
Writing library : VirtualDub build 30091/release
Video
ID : 0
Format : MPEG-4 Visual
Format profile : Simple@L1
Format settings, BVOP : No
Format settings, QPel : No
Format settings, GMC : No warppoints
Format settings, Matrix : Default (H.263)
Codec ID : DIVX
Codec ID/Info : Project Mayo
Codec ID/Hint : DivX 4
Duration : 1h 53mn
Bit rate : 861 Kbps
Width : 480 pixels
Height : 360 pixels
Display aspect ratio : 4/3
Frame rate : 23.976 fps
Resolution : 24 bits
Colorimetry : 4:2:0
Scan type : Progressive
Bits/(Pixel*Frame) : 0.208
Stream size : 700 MiB (81%)
Writing library : Lavc52.22.3
Audio
ID : 1
Format : MPEG Audio
Format version : Version 1
Format profile : Layer 3
Codec ID : 55
Codec ID/Hint : MP3
Duration : 1h 53mn
Bit rate mode : Constant
Bit rate : 192 Kbps
Channel(s) : 2 channels
Sampling rate : 44.1 KHz
Resolution : 16 bits
Stream size : 156 MiB (18%)
Alignment : Split accross interleaves
Interleave, duration : 42 ms (1.00 video frame)
Interleave, preload duration : 500 ms
Скриншоты
Скачать

Скачать торрент! Индрани / Indrani (Нирен Лахири / Niren Lahiri) [1958, Индия, Драма, мелодрама, DVDRip] VO (Бахурани) + Sub Rus (на песни)

Как скачивать? · Что такое торрент? · Рейтинг и ограничения

Сайт не распространяет и не хранит электронные версии произведений, а лишь предоставляет доступ к создаваемому пользователями каталогу ссылок на торрент-файлы, которые содержат только списки хеш-сумм

[Профиль] [ЛС]
Показать сообщения:    
Ответить на тему

Текущее время: Сегодня 05:26

Часовой пояс: GMT + 4



Вы не можете начинать темы
Вы не можете отвечать на сообщения
Вы не можете редактировать свои сообщения
Вы не можете удалять свои сообщения
Вы не можете голосовать в опросах
Вы не можете прикреплять файлы к сообщениям
Вы не можете скачивать файлы