Мистер Пронька / Mister Пронька (Леонид Носырев) [1991 г., рисованный мультфильм, DVB]

Ответить на тему
 
Автор Сообщение

user ®

Стаж: 7 лет 7 месяцев

Сообщений: 20008

Пост Пост: #1 от 22-Янв-2016 17:54

[Цитировать]

Мистер Пронька / Mister Пронька Страна: СССР, Союзмультфильм
Жанр: рисованный мультфильм
Год выпуска: 1991
Продолжительность: 00:25:32
Режиссёр: Леонид Носырев
Описание: мультфильм о том, как в Россию приезжает богатый американец с заданием от правительства, обратить в «американску веру» кого-нибудь из русских. Американец находит на рынке оборванца Проньку и заключает с ним пари: он даёт Проньке денег и возможность торговать, и если тот в течение 15 лет не будет никак мыться, то весь доход Пронька может взять себе. Так и получилось. Выдержал Пронька. Так разбогател, что даже сам Царь-Государь был у него в должниках…
Доп. информация: по мотивам сказки-скоморошины Б. Шергина «Пронька Грезной»

Релиз группы:
Трансляция спутникового канала:
Качество видео: DVB
Формат видео: MPEG-PS
Видео: MPEG2 Video, 720x576 (4:3), 25 fps, 6000 kbps
Аудио: MPEG Audiо, 2 сh, 48 kHz, 192 kbps
Сравнение
[url=http://***/forum/viewtopic.php?t=1820627]http://***/forum/viewtopic.php?t=1820627[/url]
http://screenshotcomparison.com/comparison/157585
[url=http://***/forum/viewtopic.php?t=2459649]http://***/forum/viewtopic.php?t=2459649[/url]
http://screenshotcomparison.com/comparison/157586
[url=http://***/forum/viewtopic.php?t=5101050]http://***/forum/viewtopic.php?t=5101050[/url]
http://screenshotcomparison.com/comparison/157587
MediaInfo
General
Complete name : G:\Мистер Пронька. (1991)_DVB by SLuMeP.mpg
Format : MPEG-PS
File size : 1.13 GiB
Duration : 25mn 32s
Overall bit rate mode : Variable
Overall bit rate : 6 316 Kbps
Video
ID : 224 (0xE0)
Format : MPEG Video
Format version : Version 2
Format profile : Main@Main
Format settings, BVOP : Yes
Format settings, Matrix : Custom
Format settings, GOP : Variable
Format settings, picture st : Frame
Duration : 25mn 32s
Bit rate mode : Variable
Bit rate : 5 999 Kbps
Maximum bit rate : 15.0 Mbps
Width : 720 pixels
Height : 576 pixels
Display aspect ratio : 4:3
Frame rate : 25.000 fps
Standard : PAL
Color space : YUV
Chroma subsampling : 4:2:0
Bit depth : 8 bits
Scan type : Interlaced
Scan order : Top Field First
Compression mode : Lossy
Bits/(Pixel*Frame) : 0.579
Time code of first frame : 00:00:00:00
Time code source : Group of pictures header
GOP, Open/Closed : Open
Stream size : 1.07 GiB (95%)
Audio
ID : 192 (0xC0)
Format : MPEG Audio
Format version : Version 1
Format profile : Layer 2
Duration : 25mn 32s
Bit rate mode : Constant
Bit rate : 192 Kbps
Channel(s) : 2 channels
Sampling rate : 48.0 KHz
Compression mode : Lossy
Delay relative to video : 4ms
Stream size : 35.1 MiB (3%)
Скриншоты
Скачать

Скачать торрент!

Как скачивать? · Что такое торрент? · Рейтинг и ограничения

Сайт не распространяет и не хранит электронные версии произведений, а лишь предоставляет доступ к создаваемому пользователями каталогу ссылок на торрент-файлы, которые содержат только списки хеш-сумм

[Профиль] [ЛС]
Показать сообщения:    
Ответить на тему

Текущее время: Сегодня 18:39

Часовой пояс: GMT + 4



Вы не можете начинать темы
Вы не можете отвечать на сообщения
Вы не можете редактировать свои сообщения
Вы не можете удалять свои сообщения
Вы не можете голосовать в опросах
Вы не можете прикреплять файлы к сообщениям
Вы не можете скачивать файлы