Страсть / Thirst For Love / Aiyoku (Дзюнъя Сато / Jun\'ya Sato) [1966, Япония, драма, DVDRip] Sub Rus Eng

Ответить на тему
 
Автор Сообщение

user ®

Стаж: 13 лет

Сообщений: 15071

Пост Пост: #1 от 18-Янв-2016 11:51

[Цитировать]

Страсть / Thirst For Love / Aiyoku / 愛欲
Страна: Япония
Жанр: драма
Год выпуска: 1966
Продолжительность: 01:29:54
Перевод 1: Субтитры русские - [url=http://***/forum/tracker.php?rid=6473541]дед_сто_лет[/url]©
Перевод 2: Субтитры английские - NIPPON GOLDEN NETWORK
Cубтитры: русские
Оригинальная аудиодорожка: японский
Режиссер: [url=http://***/forum/tracker.php?nm=%D0%94%D0%B7%D1%8E%D0%BD%D1%8A%D1%8F%20%D0%A1%D0%B0%D1%82%D0%BE]Дзюнъя Сато / Jun'ya Sato[/url] [url=http://***/forum/tracker.php?nm=%D0%94%D0%B7%D1%8E%D0%BD%D1%8C%D1%8F%20%D0%A1%D0%B0%D1%82%D0%BE]ИЛИ[/url]
В ролях: [url=http://***/forum/viewtopic.php?p=57093921#57093921]Рэнтаро МИКУНИ[/url], Ёсико САКУМА, Ёсико МИТА, Синдзиро ЭХАРА, Юки ДЗЁНО, Синскэ АСИДА, Каппэй МАЦУМОТО, Ро ОСЭ, Тэцуро ТАМБА
Описание: Тэцуя Эдзаки - успешный бизнесмен, он пользуется неизменным успехом у женщин, однако он не готов вступить в брак, который помешает его карьере. Неожиданная страсть изменяет всю его жизнь.©
> > > > > > >
Качество видео: DVDRip
Формат видео: AVI
Видео: 720x320 (2.25:1), 23.976 fps, XviD build 50 ~1847 kbps avg, 0.33 bit/pixel
Аудио: 48 kHz, MPEG Layer 3, 2 ch, ~192.00 kbps avg
Формат субтитров: softsub (SRT)
Доп. информация о субтитрах: дед_сто_лет
Пример субтитров
190
00:21:28,621 --> 00:21:31,568
- Вот, пожалуйста.
- Нат-тян...
191
00:21:32,858 --> 00:21:35,160
- Вы закончили обсуждать работу?
- Да.
192
00:21:35,161 --> 00:21:36,861
Нат-тян, обрати внимание...
193
00:21:36,862 --> 00:21:40,776
... Эдзаки-сан скоро устроит
революцию в Асо-Фудз.
194
00:21:40,777 --> 00:21:45,278
Я знаю... Куроки - первый, Эдзаки - второй,
а третьего, четвертого и пятого просто нет.
195
00:21:46,906 --> 00:21:49,216
Эдзаки-сан, вас к телефону.
196
00:21:53,078 --> 00:21:55,251
Эдзаки слушает.
197
00:21:58,918 --> 00:22:00,295
Да?
198
00:22:02,088 --> 00:22:04,534
Он очень любит эту зажигалку...
199
00:22:11,263 --> 00:22:14,073
Нат-тян, не сдавайся...
200
00:23:58,137 --> 00:23:59,946
Тэцуя...
201
00:24:05,778 --> 00:24:08,691
Нацуко, что с тобой?
202
00:24:31,704 --> 00:24:33,377
Тэцуя...
203
00:24:54,293 --> 00:24:56,527
Хочешь пить?
204
00:24:56,528 --> 00:24:59,236
Мне нужно уходить.
205
00:25:07,172 --> 00:25:09,209
Вот как...
206
00:25:10,209 --> 00:25:12,543
Ты сегодня смешная.
207
00:25:12,544 --> 00:25:15,889
На себя саму не похожа.
208
00:25:19,151 --> 00:25:24,222
Не волнуйся, я никуда не денусь.
209
00:25:24,223 --> 00:25:27,067
Я буду работать до смерти.
210
00:26:22,514 --> 00:26:26,087
До Эдзаки-сана очень трудно дозвониться.
211
00:26:28,921 --> 00:26:34,689
В 10:30 он на TBS в Акасака,
в 10:45 в центре TMC...
212
00:26:34,714 --> 00:26:39,603
... в 11:30 в рекламном агентстве YM,
потом в 12:30 на радио.
MediaInfo
General
Complete name : C:\...\Aiyoku(1966)Jun'ya.Sato\Aiyoku(1966)Jun'ya.Sato.avi
Format : AVI
Format/Info : Audio Video Interleave
File size : 1.29 GiB
Duration : 1h 29mn
Overall bit rate : 2 049 Kbps
Writing application : VirtualDubMod 1.5.4.1 (build 2178/release)
Writing library : VirtualDub-MPEG2 build 24600/release
Video
ID : 0
Format : MPEG-4 Visual
Format profile : Advanced Simple@L5
Format settings, BVOP : No
Format settings, QPel : No
Format settings, GMC : No warppoints
Format settings, Matrix : Custom
Codec ID : XVID
Codec ID/Hint : XviD
Duration : 1h 29mn
Bit rate : 1 848 Kbps
Width : 720 pixels
Height : 320 pixels
Display aspect ratio : 2.25:1
Frame rate : 23.976 fps
Color space : YUV
Chroma subsampling : 4:2:0
Bit depth : 8 bits
Scan type : Progressive
Compression mode : Lossy
Bits/(Pixel*Frame) : 0.334
Stream size : 1.16 GiB (90%)
Writing library : XviD 1.2.1 (UTC 2008-12-04)
Audio
ID : 1
Format : MPEG Audio
Format version : Version 1
Format profile : Layer 3
Mode : Joint stereo
Mode extension : MS Stereo
Codec ID : 55
Codec ID/Hint : MP3
Duration : 1h 29mn
Bit rate mode : Constant
Bit rate : 192 Kbps
Channel(s) : 2 channels
Sampling rate : 48.0 KHz
Compression mode : Lossy
Stream size : 123 MiB (9%)
Alignment : Aligned on interleaves
Interleave, duration : 42 ms (1.00 video frame)
Interleave, preload duration : 504 ms
Writing library : LAME3.98r
Encoding settings : -m j -V 4 -q 2 -lowpass 18.6 -b 192
Скриншот c названием фильма Скриншоты
Скачать

Скачать торрент! Страсть / Thirst For Love / Aiyoku (Дзюнъя Сато / Jun\'ya Sato) [1966, Япония, драма, DVDRip] Sub Rus Eng

Как скачивать? · Что такое торрент? · Рейтинг и ограничения

Сайт не распространяет и не хранит электронные версии произведений, а лишь предоставляет доступ к создаваемому пользователями каталогу ссылок на торрент-файлы, которые содержат только списки хеш-сумм

[Профиль] [ЛС]
Показать сообщения:    
Ответить на тему

Текущее время: Сегодня 17:19

Часовой пояс: GMT + 4



Вы не можете начинать темы
Вы не можете отвечать на сообщения
Вы не можете редактировать свои сообщения
Вы не можете удалять свои сообщения
Вы не можете голосовать в опросах
Вы не можете прикреплять файлы к сообщениям
Вы не можете скачивать файлы