Песочные часы (Ефрем Пружанский) [1987, СССР, Рисованный мультфильм, WEBRip]

Ответить на тему
 
Автор Сообщение

user ®

Стаж: 7 лет 7 месяцев

Сообщений: 20008

Пост Пост: #1 от 14-Янв-2016 11:12

[Цитировать]

Песочные часы
Страна: СССР
Жанр: Рисованный мультфильм
Продолжительность: 00:09:43
Год выпуска: 1987
Русские субтитры: нет
Режиссёр: Ефрем Пружанский
Описание: Фильм по одноименной сказке В. Каверина. Об удивительном событии, случившимся однажды в пионерлагере. В отряде появился новый воспитатель, которого ребята прозвали Борода. Мальчик Петя заметил, что у нового воспитателя довольно странное поведение - утром он бодрый и веселый, а к вечеру становится печальным и угрюмым. Заглянув как-то вечером в комнаты Бороды, Петя с удивлением заметил, что воспитатель стоит на... голове. Петя поспешил поделиться увиденным с Таней и вместе они решили выяснить, почему Борода любит стоять на голове...
Доп. информация: «Киевнаучфильм»
Авторы сценария: Б. Крыжановский, Е. Пружанский
Художник-постановщик: Ю. Скирда
Композитор: В. Быстряков
Кинооператор: А. Мухин
Звукооператор: И. Погон
Художники-мультипликаторы: Н. Чурилова, Н. Устенко, К. Чикин, А. Педан, А. Лавров
Ассистенты: О. Малова, И. Дивишек, В. Боженок, В. Езерский
Монтаж: О. Деряжной
Релиз группы:
Качество: WEBRip
Формат: AVI
Видео: 704x528 (1.33:1), 25 fps, XviD MPEG-4 ~2100 kbps avg, 0.23 bit/pixel
Аудио: 48 kHz, AC3 Dolby Digital, 2/0 (L,R) ch, ~192.00 kbps avg
Субтитры: нет
Подробные технические данные
Format : AVIFormat/Info : Audio Video InterleaveFile size : 160 MiBDuration : 9mn 43sOverall bit rate : 2 302 KbpsWriting application : VirtualDubModRus 1.5.10.2 (build 2542/release)Copyright : Rutracker.orgComment : WEBRip by dvdss
VideoID : 0Format : MPEG-4 VisualFormat profile : Advanced Simple@L5Format settings, BVOP : 2Format settings, QPel : NoFormat settings, GMC : No warppointsFormat settings, Matrix : CustomCodec ID : XVIDCodec ID/Hint : XviDDuration : 9mn 43sBit rate : 2 101 KbpsWidth : 704 pixelsHeight : 528 pixelsDisplay aspect ratio : 5:4Original display aspect ratio : 4:3Frame rate : 25.000 fpsColor space : YUVChroma subsampling : 4:2:0Bit depth : 8 bitsScan type : ProgressiveCompression mode : LossyBits/(Pixel*Frame) : 0.226Stream size : 146 MiB (91%)Writing library : XviD 65
AudioID : 1Format : AC-3Format/Info : Audio Coding 3Mode extension : CM (complete main)Format settings, Endianness : BigCodec ID : 2000Duration : 9mn 43sBit rate mode : ConstantBit rate : 192 KbpsChannel(s) : 2 channelsChannel positions : Front: L RSampling rate : 48.0 KHzBit depth : 16 bitsCompression mode : LossyStream size : 13.4 MiB (8%)Alignment : Aligned on interleavesInterleave, duration : 40 ms (1.00 video frame)Interleave, preload duration : 512 ms
сравнение с SATRip
Сравнение с [url=http://***/forum/viewtopic.php?t=3461270]http://***/forum/viewtopic.php?t=3461270[/url]
Тут -- http://screenshotcomparison.com/comparison/158083/picture:0
Скриншоты
Скачать

Скачать торрент!

Как скачивать? · Что такое торрент? · Рейтинг и ограничения

Сайт не распространяет и не хранит электронные версии произведений, а лишь предоставляет доступ к создаваемому пользователями каталогу ссылок на торрент-файлы, которые содержат только списки хеш-сумм

[Профиль] [ЛС]
Показать сообщения:    
Ответить на тему

Текущее время: Сегодня 01:49

Часовой пояс: GMT + 4



Вы не можете начинать темы
Вы не можете отвечать на сообщения
Вы не можете редактировать свои сообщения
Вы не можете удалять свои сообщения
Вы не можете голосовать в опросах
Вы не можете прикреплять файлы к сообщениям
Вы не можете скачивать файлы