Вечер в Париже / An Evening in Paris (Шакти Саманта / Shakti Samanta) [1967, Индия, Мелодрама, комедия, DVDRip] VO (Юлия Семыкина) + Sub Rus (на песни)

Ответить на тему
 
Автор Сообщение

user ®

Стаж: 12 лет

Сообщений: 15092

Пост Пост: #1 от 12-Янв-2016 12:45

[Цитировать]

Вечер в Париже / An Evening in Paris
Страна: Индия
Жанр: Мелодрама, комедия
Год выпуска: 1967
Продолжительность: 02:39:55
Перевод: Одноголосый закадровый Юлия Семыкина
Cубтитры: русские (только на тексты песен)
Режиссер: Шакти Саманта / Shakti Samanta
В ролях: Шамми Капур, Шармила Тагор, Сарита, К.Н. Сингх, Сурендра Нат, Дэвид Абрахам, М.Б. Шетти, Рахендра Нат, Пран, Жак Шаррье
Описание: Дипа приезжает в Париж, чтобы найти там настоящую любовь, поскольку считает, что индийские мужчины любить не способны. Шьям влюбляется в нее с первого взгляда, но выдает себя за француза по имени Сэм. Приключения влюбленной пары из Парижа плавно перетекают в Швейцарию, а оттуда - в Бейрут, и снова Париж. Но тут на миллионы отца Дипы позарились бандиты и решили похитить девушку, Однако, оказывается, что у Дипы есть двойник - танцовщица Сьюзи....
Доп. информация:
Озвучка: Юлия Семыкина (Спасибо!)
Материалы: larisa_k (Спасибо!)
Перевод: керелис (субтитры), Яна Будяк (диалоги на слух) (Спасибо!)
Сэмпл: http://multi-up.com/1083713
Качество видео: DVDRip
Формат видео: AVI
Видео: DivX Codec 4.x, 640x464 (1.38:1), 23.976 fps, 1743 kbps avg
Аудио: MPEG Layer 3, 44.100 kHz, 2/0 (L,R) ch, 192.00 kbps
MediaInfo
General
Complete name : F:\Vecher.v.Parizhe.1967.DVDRip.DivX.BWTorrents\Vecher.v.Parizhe.1967.DVDRip.DivX.BWTorrents.avi
Format : AVI
Format/Info : Audio Video Interleave
Format profile : OpenDML
File size : 2.17 GiB
Duration : 2h 39mn
Overall bit rate : 1 943 Kbps
Writing application : VirtualDubModRus 1.5.10.2 (build 2542/release)
Writing library : VirtualDub build 30091/release
Video
ID : 0
Format : MPEG-4 Visual
Format profile : Simple@L1
Format settings, BVOP : No
Format settings, QPel : No
Format settings, GMC : No warppoints
Format settings, Matrix : Default (H.263)
Codec ID : DIVX
Codec ID/Info : Project Mayo
Codec ID/Hint : DivX 4
Duration : 2h 39mn
Bit rate : 1 738 Kbps
Width : 640 pixels
Height : 464 pixels
Display aspect ratio : 1.379
Frame rate : 23.976 fps
Resolution : 24 bits
Colorimetry : 4:2:0
Scan type : Progressive
Bits/(Pixel*Frame) : 0.244
Stream size : 1.94 GiB (89%)
Writing library : Lavc52.22.3
Audio
ID : 1
Format : MPEG Audio
Format version : Version 1
Format profile : Layer 3
Codec ID : 55
Codec ID/Hint : MP3
Duration : 2h 39mn
Bit rate mode : Constant
Bit rate : 192 Kbps
Channel(s) : 2 channels
Sampling rate : 44.1 KHz
Resolution : 16 bits
Stream size : 220 MiB (10%)
Alignment : Split accross interleaves
Interleave, duration : 42 ms (1.00 video frame)
Interleave, preload duration : 500 ms
Скриншоты
Скачать

Скачать торрент! Вечер в Париже / An Evening in Paris (Шакти Саманта / Shakti Samanta) [1967, Индия, Мелодрама, комедия, DVDRip] VO (Юлия Семыкина) + Sub Rus (на песни)

Как скачивать? · Что такое торрент? · Рейтинг и ограничения

Сайт не распространяет и не хранит электронные версии произведений, а лишь предоставляет доступ к создаваемому пользователями каталогу ссылок на торрент-файлы, которые содержат только списки хеш-сумм

[Профиль] [ЛС]
Показать сообщения:    
Ответить на тему

Текущее время: Сегодня 12:53

Часовой пояс: GMT + 4



Вы не можете начинать темы
Вы не можете отвечать на сообщения
Вы не можете редактировать свои сообщения
Вы не можете удалять свои сообщения
Вы не можете голосовать в опросах
Вы не можете прикреплять файлы к сообщениям
Вы не можете скачивать файлы