Хроники зла / The Chronicles of Evil / Evil Chronicles / Ak-ui yeon-dae-gi (Пэк Ун-Хак / Baek Woon-hak) [2015, Южная Корея, триллер, драма, криминал., WEB-DLRip] DVO

Ответить на тему
 
Автор Сообщение

user ®

Стаж: 10 лет

Сообщений: 18979

Пост Пост: #1 от 08-Янв-2016 12:45

[Цитировать]

Хроники зла / The Chronicles of Evil / Evil Chronicles / Ak-ui yeon-dae-gi
Страна: Южная Корея, BA Entertainment
Жанр: триллер, драма, криминал
Год выпуска: 2015
Продолжительность: 01:42:16
Перевод: Любительский (двухголосый закадровый)[den904 & DeadSno; перевод Сергей Скворцов aka se]Cубтитры: нет
Оригинальная аудиодорожка: corean
Режиссер: Пэк Ун-Хак / Baek Woon-hak
В ролях: Сон Хён Чжу / Son Hyeon Ju, Ма Дон Сок / Ma Dong Seok, Чхве Даниель / Choi Daniel, Пак Со Чжун / Park Seo Joon
Описание: Криминальный триллер о теневых полицейских, попавших в плохие ситуации.
Фильм дифференцирует себя через психологических персонажей, делая попытку уйти глубже, чем просто одноразовых шахматных фигур. Это работает достаточно хорошо, и главный герой капитан полиции Чхве представляет собой образ противоречивого микса добрых намерений с морально гибкой жестокостью, настолько, чтобы держать зрителя эмоционально, вкладываясь в его бедственное положение.Присутствует ненормативная лексика.
Доп. информация:
Сэмпл: http://multi-up.com/1083024
Качество видео: WEB-DLRip
Формат видео: AVI
Видео: XviD build 50, 720x304 (2.35:1), 24,000 fps, 0.33 bit, 1746 Кбит/сек
Аудио: AC3, 48,0 КГц, 16 бит, 192 Кбит/сек, 2 ch
MediaInfo
Общее
Полное имя : D:\Хроника зла\Ak-ui Yeon-dae-gi.2015.L2.WEB-DLRip.avi
Формат : AVI
Формат/Информация : Audio Video Interleave
Размер файла : 1,39 Гбайт
Продолжительность : 1 ч. 42 м.
Общий поток : 1948 Кбит/сек
Название фильма : rip by golova123 - lenusik
Программа кодирования : VirtualDubMod 1.5.10.3 | www.virtualdub-fr.org || (build 2550/release)
Библиотека кодирования : VirtualDub build 34676/release
Правообладатель : rip by golova123 - lenusik
Видео
Идентификатор : 0
Формат : MPEG-4 Visual
Профиль формата : Advanced Simple@L5
Параметр BVOP формата : 1
Параметр QPel формата : Нет
Параметр GMC формата : Без точки перехода
Параметр матрицы формата : Default (H.263)
Идентификатор кодека : XVID
Идентификатор кодека/Подсказка : XviD
Продолжительность : 1 ч. 42 м.
Битрейт : 1746 Кбит/сек
Ширина : 720 пикселей
Высота : 304 пикселя
Соотношение сторон : 2,35:1
Частота кадров : 24,000 кадра/сек
Цветовое пространство : YUV
Субдискретизация насыщенности : 4:2:0
Битовая глубина : 8 бит
Тип развёртки : Прогрессивная
Метод сжатия : С потерями
Бит/(Пиксели*Кадры) : 0.332
Размер потока : 1,25 Гбайт (90%)
Библиотека кодирования : XviD 1.2.1 (UTC 2008-12-04)
Аудио
Идентификатор : 1
Формат : AC-3
Формат/Информация : Audio Coding 3
Расширение режима : CM (complete main)
Параметр Endianness формата : Big
Идентификатор кодека : 2000
Продолжительность : 1 ч. 42 м.
Вид битрейта : Постоянный
Битрейт : 192 Кбит/сек
Каналы : 2 канала
Расположение каналов : Front: L R
Частота : 48,0 КГц
Битовая глубина : 16 бит
Метод сжатия : С потерями
Размер потока : 140 Мбайт (10%)
Выравнивание : Разделение по промежуткам
Продолжительность промежутка : 42 мс. (1,00 видеокадр)
Время предзагрузки промежутка : 500 мс.
Скриншот c названием фильма Скриншоты
Скачать

Скачать торрент! Хроники зла / The Chronicles of Evil / Evil Chronicles / Ak-ui yeon-dae-gi (Пэк Ун-Хак / Baek Woon-hak) [2015, Южная Корея, триллер, драма, криминал., WEB-DLRip] DVO

Как скачивать? · Что такое торрент? · Рейтинг и ограничения

Сайт не распространяет и не хранит электронные версии произведений, а лишь предоставляет доступ к создаваемому пользователями каталогу ссылок на торрент-файлы, которые содержат только списки хеш-сумм

загрузка...
[Профиль] [ЛС]
Показать сообщения:    
Ответить на тему

Текущее время: Сегодня 07:43

Часовой пояс: GMT + 4



Вы не можете начинать темы
Вы не можете отвечать на сообщения
Вы не можете редактировать свои сообщения
Вы не можете удалять свои сообщения
Вы не можете голосовать в опросах
Вы не можете прикреплять файлы к сообщениям
Вы не можете скачивать файлы