И наступит тьма / And Soon the Darkness (Маркос Эфрон / Marcos Efron) [2010, США, Франция, Аргентина, триллер, BDRip-AVC] VO + Sub rus + orig eng

Ответить на тему
 
Автор Сообщение

user ®

Стаж: 7 лет 7 месяцев

Сообщений: 20008

Пост Пост: #1 от 31-Дек-2010 21:48

[Цитировать]

И наступит тьма / And Soon the Darkness
Страна: США, Франция, Аргентина
Жанр: триллер
Год выпуска: 2010
Продолжительность: 01:31:16
Cубтитры: русские
Режиссер: Маркос Эфрон / Marcos Efron
В ролях: Карл Урбан, Эмбер Хёрд, Одетт Юстман, Джина Мантенья, Адриана Барраза, Сесар Вианко, Мишель Нойер...
Описание: Действие фильма разворачивается в Аргентине. Две американские девушки путешествуют на великах по отдаленным территориям страны. Когда одна из них исчезает, у второй остается совсем немного времени до наступления темноты, чтобы найти ее. Ночные кошмары не заставят себя ждать.
Доп. информация:
IMDB 5.7/10 (646 votes)
CЭМПЛ
Качество видео: BDRip-AVC
Формат видео: MKV
Видео:1024x432 (2.35:1), 23.976 fps, x264,1897 kbps
Audio #1: 48 kHz, AC3 Dolby Digital, 3/2 (L,C,R,l,r) + LFE ch, ~384 kbps RUS
Audio #2: 48 kHz, AC3 Dolby Digital, 3/2 (L,C,R,l,r) + LFE ch, ~448 kbps ENG - отдельно-

MediaInfo

General
UniqueID : 179270258516912234334032773005819684155 (0x86DE32269B0F16ADB29E30439CD2A53B)
Complete name : D:\And Soon the Darkness.AVC.chopper887.mkv
Format : Matroska
File size : 1.46 GiB
Duration : 1h 31mn
Overall bit rate : 2 283 Kbps
Movie name : And Soon the Darkness.AVC.chopper887
Encoded date : UTC 2010-12-24 21:34:57
Writing application : mkvmerge v4.4.0 ('Die Wiederkehr') сборка от Nov 7 2010 22:17:07
Writing library : libebml v1.0.0 + libmatroska v1.0.0
Video
ID : 1
Format : AVC
Format/Info : Advanced Video Codec
Format profile : High@L4.1
Format settings, CABAC : Yes
Format settings, ReFrames : 10 frames
Codec ID : V_MPEG4/ISO/AVC
Duration : 1h 31mn
Bit rate : 1 897 Kbps
Width : 1 024 pixels
Height : 432 pixels
Display aspect ratio : 2.35:1
Frame rate : 23.976 fps
Color space : YUV
Chroma subsampling : 4:2:0
Bit depth : 8 bits
Scan type : Progressive
Bits/(Pixel*Frame) : 0.179
Stream size : 1.18 GiB (81%)
Title : And Soon the Darkness.AVC.chopper887
Writing library : x264 core 110 r1804 e89c4cf
Encoding settings : cabac=1 / ref=10 / deblock=1:-2:-1 / analyse=0x3:0x133 / me=umh / subme=9 / psy=1 / psy_rd=1.00:0.10 / mixed_ref=1 / me_range=32 / chroma_me=1 / trellis=2 / 8x8dct=1 / cqm=0 / deadzone=21,11 / fast_pskip=0 / chroma_qp_offset=-3 / threads=3 / sliced_threads=0 / nr=0 / decimate=1 / interlaced=0 / constrained_intra=0 / bframes=10 / b_pyramid=2 / b_adapt=2 / b_bias=0 / direct=3 / weightb=1 / open_gop=0 / weightp=2 / keyint=250 / keyint_min=23 / scenecut=40 / intra_refresh=0 / rc_lookahead=80 / rc=2pass / mbtree=1 / bitrate=1897 / ratetol=1.0 / qcomp=0.60 / qpmin=0 / qpmax=51 / qpstep=4 / cplxblur=20.0 / qblur=0.5 / ip_ratio=1.40 / aq=1:1.00
Language : English
Audio
ID : 2
Format : AC-3
Format/Info : Audio Coding 3
Mode extension : CM (complete main)
Codec ID : A_AC3
Duration : 1h 31mn
Bit rate mode : Constant
Bit rate : 384 Kbps
Channel(s) : 6 channels
Channel positions : Front: L C R, Side: L R, LFE
Sampling rate : 48.0 KHz
Bit depth : 16 bits
Compression mode : Lossy
Stream size : 251 MiB (17%)
Title : zamez
Text
ID : 3
Format : UTF-8
Codec ID : S_TEXT/UTF8
Codec ID/Info : UTF-8 Plain Text
Title : Русские

Скриншоты

Скачать

Скачать торрент!

Как скачивать? · Что такое торрент? · Рейтинг и ограничения

Сайт не распространяет и не хранит электронные версии произведений, а лишь предоставляет доступ к создаваемому пользователями каталогу ссылок на торрент-файлы, которые содержат только списки хеш-сумм

[Профиль] [ЛС]
Показать сообщения:    
Ответить на тему

Текущее время: Сегодня 16:27

Часовой пояс: GMT + 4



Вы не можете начинать темы
Вы не можете отвечать на сообщения
Вы не можете редактировать свои сообщения
Вы не можете удалять свои сообщения
Вы не можете голосовать в опросах
Вы не можете прикреплять файлы к сообщениям
Вы не можете скачивать файлы