Искатели приключений / Прикосновение / The Touch / Tian mai chuan qi (Питер Пау / Peter Pau) [2002, Гонконг, Китай, США, Япония, боевик, мелодрама, приключения, VHSRip] [Full Screen] DUB (Союз)

Ответить на тему
 
Автор Сообщение

user ®

Стаж: 13 лет

Сообщений: 15071

Пост Пост: #1 от 31-Дек-2015 19:09

[Цитировать]

Искатели приключений / Прикосновение / The Touch / Tian mai chuan qi
«Two confused friends are about to embrace one last hope»
[Full Screen]
Страна: Гонконг, Китай, США, Япония
Жанр: боевик, мелодрама, приключения
Год выпуска: 2002
Продолжительность: 01:42:44
Перевод: Профессиональный (дублированный) Союз
Cубтитры: нет
Режиссер: Питер Пау / Peter Pau
В ролях: Мишель Йео, Бен Чаплин, Ричард Роксберг, Брэндон Чанг, Дэйн Кук
Описание: От создателей фильма "Крадущийся тигр, затаившийся дракон".
Захватывающие приключения в лучших традициях Индианы Джонса и Лары Крофт. Режиссерский дебют оскароносного оператора Питера Пау ("Крадущийся тигр, затаившийся дракон").
Бюджет фильма - 35 млн. долларов.
Во времена великой опасности монахи из монастыря Дунь Хуан решили спрятать хранимую ими священную древнюю реликвию. Бесценное сокровище поместили в такое место, где никто никогда не смог бы его найти. Когда пришло время вернуть реликвию обратно в монастырь, монахи обратились за помощью к труппе акробатов, виртуозно владеющих своим искусством… Века спустя, красавица Ин и ее брат Тонг - последние из рода великих акробатов, в руки которых попадает загадочный медальон, отправляются в древний монастырь, чтобы узнать его тайну.
Доп. информация: Runtime 1 hr 43 min (103 min) (China)
1 hr 23 min (83 min) (Miramax) (USA)
Оцифровка лицензионной VHS (личный архив) и получение VHSRip alenavova
Эксклюзив для ***. При размещении данного релиза на других сайтах ссылка на автора alenavova обязательна.

Релиз
Сэмпл: https://yadi.sk/i/7Dt1TFgEmcKxz
Качество видео: VHSRip
Формат видео: AVI
Видео: 704x528 (1.33:1), 25 fps, XviD build 73 ~1704 kbps avg, 0.18 bit/pixel
Аудио: 48 kHz, AC3 Dolby Digital, 2/0 (L,R) ch, ~192 kbps
MediaInfo
Искатели приключений - The Touch (by alenavova).avi
Format : AVI
Format/Info : Audio Video Interleave
File size : 1.37 GiB
Duration : 1h 42mn
Overall bit rate : 1 906 Kbps
Movie name : Искатели приключений - The Touch (by alenavova)
Director : by alenavova
Writing application : VirtualDubMod 1.5.10.3 | www.virtualdub-fr.org || (build 2550/release)
Copyright : Edich2
Comment : ***
Video
ID : 0
Format : MPEG-4 Visual
Format profile : Advanced Simple@L5
Format settings, BVOP : 1
Format settings, QPel : No
Format settings, GMC : No warppoints
Format settings, Matrix : Custom
Codec ID : XVID
Codec ID/Hint : XviD
Duration : 1h 42mn
Bit rate : 1 705 Kbps
Width : 704 pixels
Height : 528 pixels
Display aspect ratio : 4:3
Frame rate : 25.000 fps
Color space : YUV
Chroma subsampling : 4:2:0
Bit depth : 8 bits
Scan type : Progressive
Compression mode : Lossy
Bits/(Pixel*Frame) : 0.183
Stream size : 1.22 GiB (89%)
Writing library : XviD 73
Audio
ID : 1
Format : AC-3
Format/Info : Audio Coding 3
Mode extension : CM (complete main)
Format settings, Endianness : Big
Codec ID : 2000
Duration : 1h 42mn
Bit rate mode : Constant
Bit rate : 192 Kbps
Channel(s) : 2 channels
Channel positions : Front: L R
Sampling rate : 48.0 KHz
Bit depth : 16 bits
Compression mode : Lossy
Stream size : 141 MiB (10%)
Alignment : Split accross interleaves
Interleave, duration : 40 ms (1.00 video frame)
Interleave, preload duration : 500 ms
Скриншоты
Скачать

Скачать торрент! Искатели приключений / Прикосновение / The Touch / Tian mai chuan qi (Питер Пау / Peter Pau) [2002, Гонконг, Китай, США, Япония, боевик, мелодрама, приключения, VHSRip] [Full Screen] DUB (Союз)

Как скачивать? · Что такое торрент? · Рейтинг и ограничения

Сайт не распространяет и не хранит электронные версии произведений, а лишь предоставляет доступ к создаваемому пользователями каталогу ссылок на торрент-файлы, которые содержат только списки хеш-сумм

[Профиль] [ЛС]
Показать сообщения:    
Ответить на тему

Текущее время: Сегодня 16:03

Часовой пояс: GMT + 4



Вы не можете начинать темы
Вы не можете отвечать на сообщения
Вы не можете редактировать свои сообщения
Вы не можете удалять свои сообщения
Вы не можете голосовать в опросах
Вы не можете прикреплять файлы к сообщениям
Вы не можете скачивать файлы