Воспоминания меча / Memories of the Sword / Hyeomnyeo: Kar-ui gi-eok (Пак Хен Сик / Heung-Sik Park) [2015, Южная Корея, драма, приключения, боевые искусства, DVDRip] + Sub Rus

Ответить на тему
 
Автор Сообщение

user ®

Стаж: 13 лет

Сообщений: 15071

Пост Пост: #1 от 26-Дек-2015 11:45

[Цитировать]

Воспоминания меча / Memories of the Sword / Hyeomnyeo: Kar-ui gi-eok
Страна: Южная Корея
Жанр: драма, приключения, боевые искусства
Год выпуска: 2015
Продолжительность: 02:00:18
Перевод: Субтитры
Cубтитры: русские (мои)
Режиссер: Пак Хен Сик / Heung-Sik Park
В ролях: Ли Бен Хон, Чон До Ен, Ким Го Ын, Ли Кен Ен, Ким Тхэ У, Ли Чжун Хо
Описание: Действие фильма происходит в средневековой Корее. Юная девушка, овладев искусством меча, мстит за смерть своих родителей. Только дается ей месть непросто. Мешают любовь и неопытность. А вот противник, напротив, очень силен и опасен.
Сэмпл: http://multi-up.com/1080764
Качество видео: DVDRip
Формат видео: AVI
Видео: Xvid, 720x304, 24fps, 1490kbps
Аудио: Dolby AC3, 48000Hz, stereo 224kbps
Формат субтитров: softsub (SRT)
MediaInfo
Format : AVI
Format/Info : Audio Video Interleave
Format profile : OpenDML
File size : 1.45 GiB
Duration : 2h 0mn
Overall bit rate : 1 727 Kbps
Writing application : Lavf55.43.100
Video
ID : 0
Format : xvid
Codec ID : xvid
Duration : 2h 0mn
Bit rate : 1 491 Kbps
Width : 720 pixels
Height : 304 pixels
Display aspect ratio : 2.40:1
Frame rate : 24.000 fps
Bits/(Pixel*Frame) : 0.284
Stream size : 1.25 GiB (86%)
Audio
ID : 1
Format : AC-3
Format/Info : Audio Coding 3
Mode extension : CM (complete main)
Format settings, Endianness : Big
Codec ID : 2000
Duration : 2h 0mn
Bit rate mode : Constant
Bit rate : 224 Kbps
Channel(s) : 2 channels
Channel positions : Front: L R
Sampling rate : 48.0 KHz
Bit depth : 16 bits
Compression mode : Lossy
Stream size : 193 MiB (13%)
Alignment : Aligned on interleaves
Interleave, duration : 32 ms (0.77 video frame)
Скриншот c названием фильма Скриншоты Пример субтитров
1
00:00:44,578 --> 00:00:46,683
"LOTTE ENTERTAINMENT
ПРЕДСТАВЛЯЕТ"
2
00:00:47,948 --> 00:00:50,019
"ПРОИЗВОДСТВО
TPS COMPANY"
3
00:01:15,442 --> 00:01:23,442
"ЭРА КОРЁ: КОГДА ЧАЙ, ЯРОСТЬ
И МЕЧИ ПРАВИЛИ МИРОМ"
4
00:01:25,285 --> 00:01:27,060
Хон И!
5
00:01:28,589 --> 00:01:29,795
Хон И!
6
00:01:59,419 --> 00:02:04,164
Ли Бен Хон
7
00:02:06,760 --> 00:02:11,834
Чон До Ен
8
00:02:14,468 --> 00:02:19,679
Ким Го Ын
9
00:02:21,875 --> 00:02:26,722
Ли Кен Ен, Ким Тхэ У, Ли Чжун Хо
10
00:03:15,762 --> 00:03:17,435
У меня получилось!
11
00:03:20,834 --> 00:03:22,711
Ты что, перепрыгнула?
12
00:03:23,236 --> 00:03:24,806
Ты смогла?!
13
00:03:26,640 --> 00:03:28,142
Я же выросла!
14
00:03:28,341 --> 00:03:30,514
А как насчет побороться?
15
00:03:30,744 --> 00:03:32,348
Ты до меня не дорос!
16
00:03:32,379 --> 00:03:34,017
Вернись!
17
00:03:34,881 --> 00:03:36,861
А если мама все узнает!
18
00:03:37,551 --> 00:03:39,827
Не переживай! Я скоро вернусь!
19
00:04:16,423 --> 00:04:19,097
Вор! Держите его!
20
00:04:25,665 --> 00:04:27,144
Давай!
21
00:04:33,907 --> 00:04:35,147
Что за негодник!
22
00:05:05,238 --> 00:05:06,649
Ух ты!
23
00:05:15,115 --> 00:05:16,253
Так тебе!
24
00:05:59,526 --> 00:06:01,369
Он красавчик.
25
00:06:02,796 --> 00:06:04,036
Двадцать четыре!
26
00:06:04,097 --> 00:06:05,440
Победа!
27
00:07:10,430 --> 00:07:12,706
Двадцать четыре! Победа!
28
00:07:15,335 --> 00:07:16,006
Стой!
29
00:07:16,036 --> 00:07:17,344
Кто ты?
30
00:07:17,537 --> 00:07:18,709
Какой номер?
31
00:07:18,738 --> 00:07:20,718
Какая разница? Я здесь, чтобы биться!
32
00:07:20,974 --> 00:07:22,612
Уведите его!
Скачать

Скачать торрент! Воспоминания меча / Memories of the Sword / Hyeomnyeo: Kar-ui gi-eok (Пак Хен Сик / Heung-Sik Park) [2015, Южная Корея, драма, приключения, боевые искусства, DVDRip] + Sub Rus

Как скачивать? · Что такое торрент? · Рейтинг и ограничения

Сайт не распространяет и не хранит электронные версии произведений, а лишь предоставляет доступ к создаваемому пользователями каталогу ссылок на торрент-файлы, которые содержат только списки хеш-сумм

[Профиль] [ЛС]
Показать сообщения:    
Ответить на тему

Текущее время: Сегодня 20:21

Часовой пояс: GMT + 4



Вы не можете начинать темы
Вы не можете отвечать на сообщения
Вы не можете редактировать свои сообщения
Вы не можете удалять свои сообщения
Вы не можете голосовать в опросах
Вы не можете прикреплять файлы к сообщениям
Вы не можете скачивать файлы