Во имя любви (Андрей Селиванов) [2015, Россия, мелодрама, HDTV 1080i] + Original Rus

Ответить на тему
 
Автор Сообщение

user ®

Стаж: 7 лет 7 месяцев

Сообщений: 20008

Пост Пост: #1 от 08-Дек-2015 16:45

[Цитировать]

Во имя любви
Страна: Россия
Студия: кинокомпания "Русское"
Жанр: мелодрама
Год выпуска: 2015
Продолжительность: 01:30:19
Перевод: Не требуется
Cубтитры: нет
Оригинальная аудиодорожка: русский
Режиссер: Андрей Селиванов
В ролях: Екатерина Данилова, Антонина Паперная, Станислав Бондаренко, Сергей Астахов, Юрий Сазонов, Диана Енакаева, Ирина Розанова, Александр Фарбер
Описание: Настя – человек редкой душевной щедрости. Помогая всем вокруг, она совсем беззащитна перед жестокими законами "выживания". Счастье, казалось бы, улыбается Насте: она встречает мужчину своей мечты - Андрея. Но хитрая подруга Света с легкостью уводит у Насти возлюбленного и разбивает ей сердце. Однако трагическая случайность вскоре открывает Андрею глаза. Парень начинает понимать, что упустил сокровище, а под маской "доброй жены" скрывается настоящий монстр.
Кинопоиск
Sample
Тип релиза: HDTV 1080i
Контейнер: TS
Видео: MPEG4 AVC Video, H264, 16:9, 1920x1080, 25 fps, 7866 kbps
Аудио: Russian (MP2, 2 ch, 192 kbps, 16 bits, 48.0 KHz) - оригинал

MediaInfo
General
ID : 1 (0x1)
Complete name : K:\Во имя любви 2015 HDTV 1080i.ts
Format : MPEG-TS
File size : 5.35 GiB
Duration : 1h 30mn
Overall bit rate mode : Variable
Overall bit rate : 8 479 Kbps
Video
ID : 2911 (0xB5F)
Menu ID : 1009 (0x3F1)
Format : AVC
Format/Info : Advanced Video Codec
Format profile : High@L4.0
Format settings, CABAC : Yes
Format settings, ReFrames : 4 frames
Codec ID : 27
Duration : 1h 30mn
Bit rate : 7 866 Kbps
Width : 1 920 pixels
Height : 1 080 pixels
Display aspect ratio : 16:9
Frame rate : 25.000 fps
Color space : YUV
Chroma subsampling : 4:2:0
Bit depth : 8 bits
Scan type : MBAFF
Bits/(Pixel*Frame) : 0.152
Stream size : 4.96 GiB (93%)
Audio
ID : 2912 (0xB60)
Menu ID : 1009 (0x3F1)
Format : MPEG Audio
Format version : Version 1
Format profile : Layer 2
Codec ID : 3
Duration : 1h 30mn
Bit rate mode : Constant
Bit rate : 192 Kbps
Channel count : 2 channels
Sampling rate : 48.0 KHz
Compression mode : Lossy
Stream size : 124 MiB (2%)
Language : Russian
Скриншоты
Скачать

Скачать торрент!

Как скачивать? · Что такое торрент? · Рейтинг и ограничения

Сайт не распространяет и не хранит электронные версии произведений, а лишь предоставляет доступ к создаваемому пользователями каталогу ссылок на торрент-файлы, которые содержат только списки хеш-сумм

[Профиль] [ЛС]
Показать сообщения:    
Ответить на тему

Текущее время: Сегодня 23:20

Часовой пояс: GMT + 4



Вы не можете начинать темы
Вы не можете отвечать на сообщения
Вы не можете редактировать свои сообщения
Вы не можете удалять свои сообщения
Вы не можете голосовать в опросах
Вы не можете прикреплять файлы к сообщениям
Вы не можете скачивать файлы