Жизнь за кадром / Кинофильм / Киноплёнка / Celluloid (Камал / Kamal) [2013, Индия, драма, биографический, BDRip] MVO (SDI Media)

Ответить на тему
 
Автор Сообщение

user ®

Стаж: 12 лет

Сообщений: 15092

Пост Пост: #1 от 07-Дек-2015 03:33

[Цитировать]

Жизнь за кадром / Кинофильм / Celluloid
Страна: Индия
Жанр: Драма, биографический
Год выпуска: 2013
Продолжительность: 02:07:42-Перевод: Профессиональный (многоголосый закадровый) - SDI Media (т/к Индия ТВ)
Субтитры: Нет
Оригинальная дорожка: Малаялам-Режиссер: Камал / Kamal-В ролях: Притхвирадж, Мамта Мохандас, Чандни, Шринивасан, Сиддик, Недумуди Вену--Описание: Рахулу 26 лет, он работает архитектором в Лас-Вегасе, его родителям не нравится профессия сына и он пытается скрыть от них правду. Однажды на вечеринке у знакомых Рахул знакомится с Рианой, вместе они перебирают лишнего, и в таком состоянии умудряются зарегистрироваться и стать мужем и женой. В течении десяти дней они должны аннулировать этот брак иначе у Рахула будут серьезные неприятности с родителями…- -
-
-Качество видео: BDRip (исх. BD50@TmG)
Формат видео: AVI-Видео: 720x304 (2.37:1), 24 fps, XviD build 50 ~1167 kbps avg, 0.22 bit/pixel
Аудио #1: 48 kHz, AC3 Dolby Digital, 2/0 (L,R) ch, ~192 kbps [Russian]
Audio #2: 48 kHz, AC3 Dolby Digital, 2/0 (L,R) ch, ~192 kbps [Malayalam]--Сэмпл / Sample--Релиз-группа:
Риппер, синхронизация аудио: soso4eg- -
-
Скриншот с названием:
-
Скриншоты:
-
MI
General
Complete name : H:\[Релизы]\Celluloid.2013.P.BDRip.XviD.BwTorrents.avi
Format : AVI
Format/Info : Audio Video Interleave
File size : 1.40 GiB
Duration : 2h 7mn
Overall bit rate : 1 567 Kbps
Movie name : Celluloid.2013.P.BDRip.XviD.BwTorrents
Director : soso4eg
Writing application : VirtualDubMod 1.5.10.2 (build 2540/release)
Original source form/Name : Malayalam
Copyright : BwTorrents
Comment : пер. SDI Media (Жизнь за кадром)
Video
ID : 0
Format : MPEG-4 Visual
Format profile : Advanced Simple@L5
Format settings, BVOP : 1
Format settings, QPel : No
Format settings, GMC : No warppoints
Format settings, Matrix : Custom
Codec ID : XVID
Codec ID/Hint : XviD
Duration : 2h 7mn
Bit rate : 1 169 Kbps
Width : 720 pixels
Height : 304 pixels
Display aspect ratio : 2.35:1
Frame rate : 24.000 fps
Color space : YUV
Chroma subsampling : 4:2:0
Bit depth : 8 bits
Scan type : Progressive
Compression mode : Lossy
Bits/(Pixel*Frame) : 0.222
Stream size : 1.04 GiB (75%)
Writing library : XviD 1.2.1 (UTC 2008-12-04)
Audio #1
ID : 1
Format : AC-3
Format/Info : Audio Coding 3
Mode extension : CM (complete main)
Format settings, Endianness : Big
Codec ID : 2000
Duration : 2h 7mn
Bit rate mode : Constant
Bit rate : 192 Kbps
Channel count : 2 channels
Channel positions : Front: L R
Sampling rate : 48.0 KHz
Bit depth : 16 bits
Compression mode : Lossy
Stream size : 175 MiB (12%)
Alignment : Split accross interleaves
Interleave, duration : 42 ms (1.00 video frame)
Interleave, preload duration : 500 ms
Audio #2
ID : 2
Format : AC-3
Format/Info : Audio Coding 3
Mode extension : CM (complete main)
Format settings, Endianness : Big
Codec ID : 2000
Duration : 2h 7mn
Bit rate mode : Constant
Bit rate : 192 Kbps
Channel count : 2 channels
Channel positions : Front: L R
Sampling rate : 48.0 KHz
Bit depth : 16 bits
Compression mode : Lossy
Stream size : 175 MiB (12%)
Alignment : Split accross interleaves
Interleave, duration : 42 ms (1.00 video frame)
Interleave, preload duration : 500 ms
Скачать

Скачать торрент! Жизнь за кадром / Кинофильм / Киноплёнка / Celluloid (Камал / Kamal) [2013, Индия, драма, биографический, BDRip] MVO (SDI Media)

Как скачивать? · Что такое торрент? · Рейтинг и ограничения

Сайт не распространяет и не хранит электронные версии произведений, а лишь предоставляет доступ к создаваемому пользователями каталогу ссылок на торрент-файлы, которые содержат только списки хеш-сумм

[Профиль] [ЛС]
Показать сообщения:    
Ответить на тему

Текущее время: Сегодня 05:55

Часовой пояс: GMT + 4



Вы не можете начинать темы
Вы не можете отвечать на сообщения
Вы не можете редактировать свои сообщения
Вы не можете удалять свои сообщения
Вы не можете голосовать в опросах
Вы не можете прикреплять файлы к сообщениям
Вы не можете скачивать файлы