Слондайк / Slondike – Два мультфильма (Денис Цыбулькин) [1999, 2011, Россия, мультфильмы, TVRip]

Ответить на тему
 
Автор Сообщение

user ®

Стаж: 7 лет 7 месяцев

Сообщений: 20008

Пост Пост: #1 от 05-Дек-2015 11:18

[Цитировать]

Слондайк / Slondike – Два мультфильма
Страна: Россия
Жанр: мультфильм
Режиссёр: Денис Цыбулькин
Действие пародийных мультфильмов происходит на Диком Западе, который вместо ковбоев населяют антропоморфные слоны.
Слондайк / Slondike
Год выпуска: 1999
Продолжительность: 00:12:59
Описание: Хуан, Гарсия и Сальваторе - три слона-бандита, вознамерившиеся ограбить дилижанс, перевозящий сейф с золотом. Об этих планах узнаёт местный шериф и его властная мамаша. У них есть свой план...
Качество видео: DVDRip
Формат видео: AVI
Видео: 2399 kbps, 704х528 (4:3), 25.000 fps, MPEG-4 Visual (XviD)
Аудио: 192 kbps, 48.0 kHz, 2 channel, MPEG Audio (MP3)
Субтитры: отсутствуют
MediaInfo
General
Complete name : Слондайк (1999).avi
Format : AVI
Format/Info : Audio Video Interleave
File size : 242 MiB
Duration : 12mn 59s
Overall bit rate : 2 604 Kbps
Movie name : Слондайк(Slondike) 1(1999)
Writing application : Lavf55.33.100
Video
ID : 0
Format : MPEG-4 Visual
Format profile : Simple@L1
Format settings, BVOP : No
Format settings, QPel : No
Format settings, GMC : No warppoints
Format settings, Matrix : Default (H.263)
Codec ID : FMP4
Duration : 12mn 59s
Bit rate : 2 399 Kbps
Width : 704 pixels
Height : 528 pixels
Display aspect ratio : 4:3
Frame rate : 25.000 fps
Color space : YUV
Chroma subsampling : 4:2:0
Bit depth : 8 bits
Scan type : Progressive
Compression mode : Lossy
Bits/(Pixel*Frame) : 0.258
Stream size : 223 MiB (92%)
Writing library : Lavc55.52.102
Audio
ID : 1
Format : MPEG Audio
Format version : Version 1
Format profile : Layer 3
Mode : Joint stereo
Mode extension : MS Stereo
Codec ID : 55
Codec ID/Hint : MP3
Duration : 12mn 59s
Bit rate mode : Constant
Bit rate : 192 Kbps
Channel(s) : 2 channels
Sampling rate : 48.0 KHz
Compression mode : Lossy
Stream size : 17.8 MiB (7%)
Alignment : Aligned on interleaves
Interleave, duration : 24 ms (0.60 video frame)
Interleave, preload duration : 24 ms
Скриншоты Слондайк. Донна Хуан
Год выпуска: 2011
Продолжительность: 00:20:06
Описание: Трое грабителей-неудачников, задумав отомстить шерифу, хитростью проникают в его дом. Для этого один из них наряжается в женщину...
Качество видео: TVRip
Формат видео: AVI
Видео: 1921 kbps, 672х496 (4:3), 25.000 fps, MPEG-4 Visual (XviD)
Аудио: 192 kbps, 48.0 kHz, 2 channel, MPEG Audio (MP3)
Субтитры: отсутствуют
MediaInfo
General
Complete name : Слондайк. Донна Хуан (2011).avi
Format : AVI
Format/Info : Audio Video Interleave
File size : 305 MiB
Duration : 20mn 6s
Overall bit rate : 2 123 Kbps
Writing application : VirtualDubMod 1.5.10.3 | www.virtualdub-fr.org || (build 2550/release)
Writing library : VirtualDubMod build 2550/release
Video
ID : 0
Format : MPEG-4 Visual
Format profile : Advanced Simple@L5
Format settings, BVOP : 1
Format settings, QPel : No
Format settings, GMC : No warppoints
Format settings, Matrix : Custom
Codec ID : XVID
Codec ID/Hint : XviD
Duration : 20mn 6s
Bit rate : 1 921 Kbps
Width : 672 pixels
Height : 496 pixels
Display aspect ratio : 4:3
Frame rate : 25.000 fps
Color space : YUV
Chroma subsampling : 4:2:0
Bit depth : 8 bits
Scan type : Progressive
Compression mode : Lossy
Bits/(Pixel*Frame) : 0.231
Stream size : 276 MiB (90%)
Writing library : XviD 65
Audio
ID : 1
Format : MPEG Audio
Format version : Version 1
Format profile : Layer 3
Codec ID : 55
Codec ID/Hint : MP3
Duration : 20mn 6s
Bit rate mode : Constant
Bit rate : 192 Kbps
Channel(s) : 2 channels
Sampling rate : 48.0 KHz
Compression mode : Lossy
Stream size : 27.6 MiB (9%)
Alignment : Aligned on interleaves
Interleave, duration : 40 ms (1.00 video frame)
Interleave, preload duration : 504 ms
Writing library : LAME3.99r
Encoding settings : -m s -V 4 -q 0 -lowpass 18.6 -b 192
Скриншоты
Скачать

Скачать торрент!

Как скачивать? · Что такое торрент? · Рейтинг и ограничения

Сайт не распространяет и не хранит электронные версии произведений, а лишь предоставляет доступ к создаваемому пользователями каталогу ссылок на торрент-файлы, которые содержат только списки хеш-сумм

[Профиль] [ЛС]
Показать сообщения:    
Ответить на тему

Текущее время: Сегодня 22:03

Часовой пояс: GMT + 4



Вы не можете начинать темы
Вы не можете отвечать на сообщения
Вы не можете редактировать свои сообщения
Вы не можете удалять свои сообщения
Вы не можете голосовать в опросах
Вы не можете прикреплять файлы к сообщениям
Вы не можете скачивать файлы