Династия Пандавов / Пандавы / Paandav (Радж Н. Сиппи / Raj N. Sippy) [1995, Индия, Боевик, DVDRip] MVO (Zee Tv) + Sub Rus (на песни)

Ответить на тему
 
Автор Сообщение

user ®

Стаж: 12 лет

Сообщений: 15092

Пост Пост: #1 от 03-Дек-2015 12:54

[Цитировать]

Династия Пандавов / Пандавы / Paandav
Страна: Индия
Жанр: Боевик
Год выпуска: 1995
Продолжительность: 02:32:14
Перевод: Профессиональный (многоголосый закадровый) Zee Tv
Cубтитры: русские (вшитые, только на тексты песен) ElReal
Режиссер: Радж Н. Сиппи / Raj N. Sippy
В ролях: Акшай Кумар, Мукеш Кханна, Притхви, Аджинкья Део, Панкадж Дхир, Манджит Куллар, Нандини, Канчан, Судхир Пандей, Анил Награтх, Киран Кумар, Сурендра Пал, Бхушан Тевари, Боб Кристо
Описание: Полицейская история о том, как честные и патриотичные полицейские ведут борьбу со злобными мафиози и продажными полицейскими, рискуя собственной репутацией и даже жизнью.
Наш герой инспектор Виджай (Акшай Кумар) живет со своим старшим братом, помощником комиссара полиции, Ашвином Кумаром (Мукеш Кханна) и невесткой Джоти (Манжит Куллар). Вместе работают в полиции. В ходе расследования преступления Виджай выясняет, что оно было совершено человеком K.K. Кеквы (Киран Кумар), местным мафиози. Рискуя собственной жизнью, Виджай арестовывает его и сажает до суда под стражу. Виджай допрашивает заключенного, часто применяя чрезмерную силу. Но вскоре Виджаю приказывают освободить заключенного, и особа, отдавшая приказ, ни кто иной, как его собственный брат Ашвин. Все говорит о том, что Ашвин продался К.К. и его бандитам. Что сделает Виджай, чтобы прекратить это беззаконие? ... (с)ElReal
Доп. информация:
Запись и сведение звука: василисса (Спасибо!)
Перевод песен: ElReal (Спасибо!)
Сэмпл: http://multi-up.com/1077559
Качество видео: DVDRip
Формат видео: AVI
Видео: XviD MPEG-4, 640x480 (1.33:1), 29.970 fps, 1392 kbps avg
Аудио: AC3 Dolby Digital, 48 kHz, 2/0 (L,R) ch, 192.00 kbps
MediaInfo
General
Complete name : F:\Dinastija.Pandavov.1995.DVDRip.XviD.BwTorrents.avi
Format : AVI
Format/Info : Audio Video Interleave
File size : 1.70 GiB
Duration : 2h 32mn
Overall bit rate : 1 596 Kbps
Writing application : VirtualDubMod 1.5.10.2 (build 2540/release)
Writing library : VirtualDubMod build 2540/release
Video
ID : 0
Format : MPEG-4 Visual
Format profile : AdvancedSimple@L5
Format settings, BVOP : Yes
Format settings, QPel : No
Format settings, GMC : No warppoints
Format settings, Matrix : Default (H.263)
Muxing mode : Packed bitstream
Codec ID : XVID
Codec ID/Hint : XviD
Duration : 2h 32mn
Bit rate : 1 392 Kbps
Width : 640 pixels
Height : 480 pixels
Display aspect ratio : 4/3
Frame rate : 29.970 fps
Resolution : 24 bits
Colorimetry : 4:2:0
Scan type : Progressive
Bits/(Pixel*Frame) : 0.151
Stream size : 1.48 GiB (87%)
Writing library : XviD 1.2.1 (UTC 2008-12-04)
Audio
ID : 1
Format : AC-3
Format/Info : Audio Coding 3
Codec ID : 2000
Duration : 2h 32mn
Bit rate mode : Constant
Bit rate : 192 Kbps
Channel(s) : 2 channels
Channel positions : L R
Sampling rate : 48.0 KHz
Stream size : 209 MiB (12%)
Alignment : Split accross interleaves
Interleave, duration : 33 ms (1.00 video frame)
Interleave, preload duration : 500 ms
Скриншоты
Скачать

Скачать торрент! Династия Пандавов / Пандавы / Paandav (Радж Н. Сиппи / Raj N. Sippy) [1995, Индия, Боевик, DVDRip] MVO (Zee Tv) + Sub Rus (на песни)

Как скачивать? · Что такое торрент? · Рейтинг и ограничения

Сайт не распространяет и не хранит электронные версии произведений, а лишь предоставляет доступ к создаваемому пользователями каталогу ссылок на торрент-файлы, которые содержат только списки хеш-сумм

[Профиль] [ЛС]
Показать сообщения:    
Ответить на тему

Текущее время: Сегодня 02:34

Часовой пояс: GMT + 4



Вы не можете начинать темы
Вы не можете отвечать на сообщения
Вы не можете редактировать свои сообщения
Вы не можете удалять свои сообщения
Вы не можете голосовать в опросах
Вы не можете прикреплять файлы к сообщениям
Вы не можете скачивать файлы