Влажные мечты / Wet Dreams / Mongjunggi (Чо Син Юнг / Cho Sin Jung) [2002, Корея Южная, комедия, DVDRip] VO + Sub Rus

Ответить на тему
 
Автор Сообщение

user ®

Стаж: 13 лет

Сообщений: 15071

Пост Пост: #1 от 23-Ноя-2015 11:24

[Цитировать]

Влажные мечты / Wet Dreams / Mongjunggi
Страна: Корея Южная
Жанр: комедия
Год выпуска: 2002
Продолжительность: 01:37:46
Перевод: Одноголосый закадровый (Jonne)
Cубтитры: русские
Оригинальная аудиодорожка: Корейская
Режиссер: Чо Син Юнг / Cho Sin Jung
В ролях: Ли Бом Су (Lee Beom Soo), Ким Сон А (Kim Sun A), Ан Чжэ Хон (Ahn Jae Hong), Чон Чэ Хён (Jeon Jae Hyeong), Дэ-Хун Чон (Dae-Hoon Jeong), Хунг-ок Но (Hyung-ok Noh)
Описание: Приключения четырех пятнадцатилетних друзей, в класс которых назначают новую учительницу-стажерку.
Доп. информация:
Кинопоиск
imdb
Сэмпл: http://sendfile.su/1176235
Качество видео: DVDRip
Формат видео: AVI
Видео: DIVX, 576x320, 16:9, 23.976 fps, 890 Kbps
Аудио: AC-3, 48.0 KHz, 192 Kbps, 2 channels, русская
Аудио 2: MPEG Audio, 32.0 KHz, 100.0 Kbps, 2 channels, корейская
Формат субтитров: softsub (SRT)
MediaInfo
General
Complete name : Mongjunggi_2002_by_Jonne.avi
Format : AVI
Format/Info : Audio Video Interleave
File size : 839 MiB
Duration : 1h 38mn
Overall bit rate : 1 188 Kbps
Video
ID : 0
Format : MPEG-4 Visual
Format profile : Advanced Simple@L4
Format settings, BVOP : 2
Format settings, QPel : No
Format settings, GMC : No warppoints
Format settings, Matrix : Default (H.263)
Codec ID : DIVX
Codec ID/Info : Project Mayo
Codec ID/Hint : DivX 4
Duration : 1h 37mn
Bit rate : 890 Kbps
Width : 576 pixels
Height : 320 pixels
Display aspect ratio : 16:9
Frame rate : 23.976 fps
Color space : YUV
Chroma subsampling : 4:2:0
Bit depth : 8 bits
Scan type : Progressive
Compression mode : Lossy
Bits/(Pixel*Frame) : 0.201
Stream size : 622 MiB (74%)
Writing library : XviD 64
Audio #1
ID : 1
Format : AC-3
Format/Info : Audio Coding 3
Mode extension : CM (complete main)
Codec ID : 2000
Duration : 1h 37mn
Bit rate mode : Constant
Bit rate : 192 Kbps
Channel(s) : 2 channels
Channel positions : Front: L R
Sampling rate : 48.0 KHz
Bit depth : 16 bits
Compression mode : Lossy
Stream size : 134 MiB (16%)
Alignment : Aligned on interleaves
Interleave, duration : 32 ms (0.77 video frame)
Audio #2
ID : 2
Format : MPEG Audio
Format version : Version 1
Format profile : Layer 3
Mode : Joint stereo
Mode extension : MS Stereo
Codec ID : 55
Codec ID/Hint : MP3
Duration : 1h 38mn
Bit rate mode : Variable
Bit rate : 100.0 Kbps
Channel(s) : 2 channels
Sampling rate : 32.0 KHz
Compression mode : Lossy
Stream size : 70.6 MiB (8%)
Alignment : Aligned on interleaves
Interleave, duration : 36 ms (0.86 video frame)
Writing library : LAME3.90.
Encoding settings : -m j -V 4 -q 2 -lowpass 15.4 --abr 100
Скриншот c названием фильма Скриншоты
Скачать

Скачать торрент! Влажные мечты / Wet Dreams / Mongjunggi (Чо Син Юнг / Cho Sin Jung) [2002, Корея Южная, комедия, DVDRip] VO + Sub Rus

Как скачивать? · Что такое торрент? · Рейтинг и ограничения

Сайт не распространяет и не хранит электронные версии произведений, а лишь предоставляет доступ к создаваемому пользователями каталогу ссылок на торрент-файлы, которые содержат только списки хеш-сумм

[Профиль] [ЛС]
Показать сообщения:    
Ответить на тему

Текущее время: Сегодня 18:16

Часовой пояс: GMT + 4



Вы не можете начинать темы
Вы не можете отвечать на сообщения
Вы не можете редактировать свои сообщения
Вы не можете удалять свои сообщения
Вы не можете голосовать в опросах
Вы не можете прикреплять файлы к сообщениям
Вы не можете скачивать файлы