Путешествие во времени: 5 секунд до оргазма / Time Adventure: 5 Seconds Till Climax / Taimu abanchûru: Zecchô 5-byô mae (Ёдзиро Такита / Yojiro Takita) [1986, Япония, Комедия, фантастика, пинку, DVDRip] VO

Ответить на тему
 
Автор Сообщение

user ®

Стаж: 13 лет

Сообщений: 15071

Пост Пост: #1 от 17-Ноя-2015 12:54

[Цитировать]

Путешествие во времени: 5 секунд до оргазма / Time Adventure: 5 Seconds Till Climax / Taimu abanchûru: Zecchô 5-byô mae
Страна: Япония
Жанр: Комедия, фантастика, пинку
Год выпуска: 1986
Продолжительность: 01:17:50
Перевод: Одноголосый закадровый
Cубтитры: нет
Оригинальная аудиодорожка: Японский
Режиссер: Ёдзиро Такита / Yojiro Takita
В ролях: Танака Кодзуэ, Кидзуки Саэко, Вакана Синобу, Юкидзиро Хотару
Описание: Молодая женщина неожиданно для себя оказывается в будущем, где попадает в различные сексуальные приключения, а заодно ищет способ вернуться назад в прошлое.
Сэмпл: https://yadi.sk/i/bpekBaTvkQRe3
Качество видео: DVDRip
Формат видео: AVI
Видео: MPEG-4 Visual, 640х352 (16:9), 23,976 кадра/сек, 1144 Кбит/сек
Аудио: MPEG Audio, 48,0 КГц, 128 Кбит/сек, 2 канала
MediaInfo
Общее
Полное имя : D:\торрент\редкие\Time.Adventure.5Seconds.Till.Climax.avi
Формат : AVI
Формат/Информация : Audio Video Interleave
Размер файла : 713 Мбайт
Продолжительность : 1 ч. 17 м.
Общий поток : 1281 Кбит/сек
Программа кодирования : VirtualDubMod 1.5.10.1 (build 2366/release)
Видео
Идентификатор : 0
Формат : MPEG-4 Visual
Параметр BVOP формата : 1
Параметр QPel формата : Нет
Параметр GMC формата : Без точки перехода
Параметр матрицы формата : Default (H.263)
Идентификатор кодека : DX50
Идентификатор кодека/Подсказка : DivX 5
Режим смешивания : Сжатый битовый поток
Продолжительность : 1 ч. 17 м.
Битрейт : 1144 Кбит/сек
Ширина : 640 пикселей
Высота : 352 пикселя
Соотношение сторон : 16:9
Частота кадров : 23,976 кадра/сек
Цветовое пространство : YUV
Субдискретизация насыщенности : 4:2:0
Битовая глубина : 8 бит
Тип развёртки : Прогрессивная
Метод сжатия : С потерями
Бит/(Пиксели*Кадры) : 0.212
Размер потока : 637 Мбайт (89%)
Библиотека кодирования : DivX 6.2.2 (UTC 2006-04-26)
Аудио
Идентификатор : 1
Формат : MPEG Audio
Версия формата : Version 1
Профиль формата : Layer 3
Режим : Joint stereo
Расширение режима : MS Stereo
Идентификатор кодека : 55
Идентификатор кодека/Подсказка : MP3
Продолжительность : 1 ч. 17 м.
Вид битрейта : Постоянный
Битрейт : 128 Кбит/сек
Каналы : 2 канала
Частота : 48,0 КГц
Метод сжатия : С потерями
Размер потока : 71,3 Мбайт (10%)
Выравнивание : Соединение по промежуткам
Продолжительность промежутка : 42 мс. (1,00 видеокадр)
Время предзагрузки промежутка : 504 мс.
Скриншот c названием фильма Скриншоты
Скачать

Скачать торрент! Путешествие во времени: 5 секунд до оргазма / Time Adventure: 5 Seconds Till Climax / Taimu abanchûru: Zecchô 5-byô mae (Ёдзиро Такита / Yojiro Takita) [1986, Япония, Комедия, фантастика, пинку, DVDRip] VO

Как скачивать? · Что такое торрент? · Рейтинг и ограничения

Сайт не распространяет и не хранит электронные версии произведений, а лишь предоставляет доступ к создаваемому пользователями каталогу ссылок на торрент-файлы, которые содержат только списки хеш-сумм

[Профиль] [ЛС]
Показать сообщения:    
Ответить на тему

Текущее время: Сегодня 16:39

Часовой пояс: GMT + 4



Вы не можете начинать темы
Вы не можете отвечать на сообщения
Вы не можете редактировать свои сообщения
Вы не можете удалять свои сообщения
Вы не можете голосовать в опросах
Вы не можете прикреплять файлы к сообщениям
Вы не можете скачивать файлы