Видимость / Drishyam (Нишикант Камат / Nishikant Kamat) [2015, Индия, Драма, DVDRip-AVC] Sub Rus

Ответить на тему
 
Автор Сообщение

user ®

Стаж: 13 лет

Сообщений: 15070

Пост Пост: #1 от 08-Ноя-2015 05:54

[Цитировать]

Видимость / Drishyam
Страна: Индия
Жанр: Драма
Год выпуска: 2015
Продолжительность: 02:43:31
Перевод: Субтитры
Cубтитры: русские
Оригинальная аудиодорожка: Хинди
Режиссер: Нишикант Камат / Nishikant Kamat
В ролях: Аджай Девган, Шрия Саран, Табу, Раджат Капур, Камлеш Савант, Ишита Датта, Мрунал Джатхав, Пратамеш Параб, Ришабх Чадда, Викас Кумар
Описание: Имея лишь четыре класса образования, Виджай Салгаонкар (Аджай Девган), тем не менее, смог выбиться в люди, открыв собственный бизнес по оказанию услуг кабельного телевидения. Безбедная жизнь Виджая сегодня -результат многих лет его упорного труда, личностного роста и, вероятно, бережливости, которая очень сильно раздражает жену Виджая, Нандини (Шрия Саран). Не нравится Нандини и большая любовь Виджая к фильмам, которые он готов смотреть с утра до глубокой ночи, в ущерб общению со своей семьей. Но у Судьбы, порой, парадоксальные идеи в отношении нас, смертных. Ведь именно благодаря фильмам, которые в огромном количестве поглощал Виджай, он оказался достаточно грамотным, чтобы начать борьбу за жизнь, честь, достоинство и свободу членов своей семьи, самых дорогих его сердцу девочек -жены и двух дочек.
Релиз-группа: Deewana
Перевод: Ларри и Лисонька
Доп. информация: Бюджет: 62 Крора Рупий ($9,4 млн) Бокс-офис: 73,84 Крора Рупий ($11 млн)
Ремейк фильма "Drishyam" (малаялам) с Моханлалом 2013 года.


Качество видео: DVDRip-AVC
Формат видео: MKV
Видео: H.264, 1152x488 pixel, 23.976 fps, 830 kbps
Аудио: AC3, 48 kHz, 6 channels, 448 kbps
Формат субтитров: hardsub (неотключаемые)
MediaInfo
C:\Users\алла\Videos\Бимуви2\Vidimost.2015.DVDRip.Deewana.mkv
General
Unique ID : 249819120764658747486503003089423397138 (0xBBF1699BF78137DCBCD0DDFDA8B97112)
Complete name : C:\Users\алла\Videos\Бимуви2\Vidimost.2015.DVDRip.Deewana.mkv
Format : Matroska
Format version : Version 2
File size : 1.46 GiB
Duration : 2h 43mn
Overall bit rate : 1 280 Kbps
Encoded date : UTC 2015-11-06 13:32:18
Writing application : mkvmerge v6.1.0 ('Old Devil') built on Mar 4 2013 09:10:42
Writing library : libebml v1.3.0 + libmatroska v1.4.0
Video #1
ID : 1
Format : AVC
Format/Info : Advanced Video Codec
Format profile : High@L3.1
Format settings, CABAC : Yes
Format settings, ReFrames : 4 frames
Codec ID : V_MPEG4/ISO/AVC
Duration : 2h 43mn
Bit rate : 830 Kbps
Width : 1 152 pixels
Height : 488 pixels
Display aspect ratio : 2.35:1
Frame rate : 29.970 fps
Color space : YUV
Chroma subsampling : 4:2:0
Bit depth : 8 bits
Scan type : Progressive
Bits/(Pixel*Frame) : 0.049
Stream size : 943 MiB (63%)
Writing library : x264 core 130 r2273 b3065e6
Encoding settings : cabac=1 / ref=2 / deblock=1:0:0 / analyse=0x3:0x113 / me=hex / subme=4 / psy=1 / psy_rd=1.00:0.00 / mixed_ref=0 / me_range=16 / chroma_me=1 / trellis=1 / 8x8dct=1 / cqm=0 / deadzone=21,11 / fast_pskip=1 / chroma_qp_offset=0 / threads=3 / lookahead_threads=1 / sliced_threads=0 / nr=0 / decimate=1 / interlaced=0 / bluray_compat=0 / constrained_intra=0 / bframes=3 / b_pyramid=2 / b_adapt=1 / b_bias=0 / direct=1 / weightb=1 / open_gop=0 / weightp=1 / keyint=250 / keyint_min=25 / scenecut=40 / intra_refresh=0 / rc_lookahead=20 / rc=2pass / mbtree=1 / bitrate=830 / ratetol=1.0 / qcomp=0.60 / qpmin=0 / qpmax=69 / qpstep=4 / cplxblur=20.0 / qblur=0.5 / ip_ratio=1.40 / aq=1:1.00
Audio #2
ID : 2
Format : AC-3
Format/Info : Audio Coding 3
Mode extension : CM (complete main)
Codec ID : A_AC3
Duration : 2h 43mn
Bit rate mode : Constant
Bit rate : 448 Kbps
Channel(s) : 6 channels
Channel positions : Front: L C R, Side: L R, LFE
Sampling rate : 48.0 KHz
Bit depth : 16 bits
Compression mode : Lossy
Stream size : 524 MiB (35%)
Скриншот c названием фильма Скриншоты
Скачать

Скачать торрент! Видимость / Drishyam (Нишикант Камат / Nishikant Kamat) [2015, Индия, Драма, DVDRip-AVC] Sub Rus

Как скачивать? · Что такое торрент? · Рейтинг и ограничения

Сайт не распространяет и не хранит электронные версии произведений, а лишь предоставляет доступ к создаваемому пользователями каталогу ссылок на торрент-файлы, которые содержат только списки хеш-сумм

[Профиль] [ЛС]
Показать сообщения:    
Ответить на тему

Текущее время: Сегодня 16:57

Часовой пояс: GMT + 4



Вы не можете начинать темы
Вы не можете отвечать на сообщения
Вы не можете редактировать свои сообщения
Вы не можете удалять свои сообщения
Вы не можете голосовать в опросах
Вы не можете прикреплять файлы к сообщениям
Вы не можете скачивать файлы