Слепая девушка и меч захвата души / Seisure Soul Sword of a Blind Girl (Джозеф Куо / Joseph Kuo) [1970, Тайвань, боевик, восточные единоборства, VHSRip] VO (Jet) + Sub Eng

Ответить на тему
 
Автор Сообщение

user ®

Стаж: 13 лет

Сообщений: 15071

Пост Пост: #1 от 05-Ноя-2015 16:00

[Цитировать]

Слепая девушка и меч захвата души / Seisure Soul Sword of a Blind Girl
Страна: Тайвань
Жанр: боевик, восточные единоборства
Год выпуска: 1970
Продолжительность: 01:29:57
Перевод: Одноголосый закадровый - Jet
Cубтитры: английские, китайские - все изначально вшитые в видеоряд

Режиссер: Джозеф Куо / Joseph Kuo
В ролях: Чеунг Чинг-Чинг, Лиу Пинг, Чианг Нан, Ма Кей, Тин Минг, И Юэнь
Описание: Трое негодяев убивают всю семью Чу. В живых остается только маленькая девочка Цуй, которая лишается зрения. Спустя 13 лет Цуй выходит на тропу мести. Девушка изучила специальное кунг - фу для слепых и в ее руках есть могучее оружие - Меч Демона.
Качество видео: [url=http://***/forum/viewtopic.php?t=5089616]VHSRip[/url]
Формат видео: AVI
Видео: 640x480 (1.33:1), 23.976 fps, XviD build 73 ~2110 kbps avg, 0.29 bit/pixel
Аудио: 48 kHz, AC3 Dolby Digital, 2/0 (L,R) ch, ~192 kbps


MediaInfo
Общее
Полное имя : H:\Seisure.Soul.Sword.of.a.Blind.Girl.1970.vhsrip_[1.46]_[teko].avi
Формат : AVI
Формат/Информация : Audio Video Interleave
Размер файла : 1,45 Гбайт
Продолжительность : 1 ч. 29 м.
Общий поток : 2312 Кбит/сек
Программа кодирования : VirtualDubMod 1.5.10.3 | www.virtualdub-fr.org || (build 2550/release)
Библиотека кодирования : VirtualDubMod build 2550/release
Видео
Идентификатор : 0
Формат : MPEG-4 Visual
Профиль формата : Advanced Simple@L5
Параметр BVOP формата : 1
Параметр QPel формата : Нет
Параметр GMC формата : Без точки перехода
Параметр матрицы формата : Выборочная
Идентификатор кодека : XVID
Идентификатор кодека/Подсказка : XviD
Продолжительность : 1 ч. 29 м.
Битрейт : 2111 Кбит/сек
Ширина : 640 пикселей
Высота : 480 пикселей
Соотношение сторон : 4:3
Частота кадров : 23,976 кадра/сек
Цветовое пространство : YUV
Субдискретизация насыщенности : 4:2:0
Битовая глубина : 8 бит
Тип развёртки : Прогрессивная
Метод сжатия : С потерями
Бит/(Пиксели*Кадры) : 0.287
Размер потока : 1,33 Гбайт (91%)
Библиотека кодирования : XviD 73
Аудио
Идентификатор : 1
Формат : AC-3
Формат/Информация : Audio Coding 3
Расширение режима : CM (complete main)
Параметр Endianness формата : Big
Идентификатор кодека : 2000
Продолжительность : 1 ч. 29 м.
Вид битрейта : Постоянный
Битрейт : 192 Кбит/сек
Каналы : 2 канала
Расположение каналов : Front: L R
Частота : 48,0 КГц
Битовая глубина : 16 бит
Метод сжатия : С потерями
Размер потока : 124 Мбайт (8%)
Выравнивание : Разделение по промежуткам
Продолжительность промежутка : 42 мс. (1,00 видеокадр)
Время предзагрузки промежутка : 500 мс.
Скриншоты Релиз группы:
[url=http://***/forum/viewtopic.php?t=1677970] [/url]
--
Скачать

Скачать торрент! Слепая девушка и меч захвата души / Seisure Soul Sword of a Blind Girl (Джозеф Куо / Joseph Kuo) [1970, Тайвань, боевик, восточные единоборства, VHSRip] VO (Jet) + Sub Eng

Как скачивать? · Что такое торрент? · Рейтинг и ограничения

Сайт не распространяет и не хранит электронные версии произведений, а лишь предоставляет доступ к создаваемому пользователями каталогу ссылок на торрент-файлы, которые содержат только списки хеш-сумм

[Профиль] [ЛС]
Показать сообщения:    
Ответить на тему

Текущее время: Сегодня 17:36

Часовой пояс: GMT + 4



Вы не можете начинать темы
Вы не можете отвечать на сообщения
Вы не можете редактировать свои сообщения
Вы не можете удалять свои сообщения
Вы не можете голосовать в опросах
Вы не можете прикреплять файлы к сообщениям
Вы не можете скачивать файлы