Три мелодии / Three melodies (Гарри Бардин) [2013, музыкальный анимационный фильм, WEBRip]

Ответить на тему
 
Автор Сообщение

user ®

Стаж: 7 лет 7 месяцев

Сообщений: 20008

Пост Пост: #1 от 24-Окт-2015 15:00

[Цитировать]

Три мелодии / Three melodies
Страна: Россия
Жанр: музыкальный анимационный фильм
Продолжительность: 00:17:33
Год выпуска: 2013
Режиссёр: Гарри Бардин
Описание: Три сюжета, навеянные классическими музыкальными композициями:
"Элегия" на музыку Жюля Массне
"Исход" на спиричуэл "Go down Moses"
"Рондо" на музыку Камиля Сен-Санса
Качество: WEBRip
Формат: AVI
Видео: 2389 kbps, 720х416 (1.731), 25.000 fps, MPEG-4 Visual (XviD)
Аудио: 192 kbps, 48.0 kHz, 2 channels, MPEG Audio (MP3)
Субтитры: отсутствуют
Подробные технические данные
GeneralComplete name : Три мелодии (2013).aviFormat : AVIFormat/Info : Audio Video InterleaveFile size : 326 MiBDuration : 17mn 33sOverall bit rate : 2 594 KbpsWriting application : Lavf55.33.100
VideoID : 0Format : MPEG-4 VisualFormat profile : Advanced Simple@L5Format settings, BVOP : 2Format settings, QPel : NoFormat settings, GMC : No warppointsFormat settings, Matrix : Default (H.263)Codec ID : XVIDCodec ID/Hint : XviDDuration : 17mn 33sBit rate : 2 389 KbpsWidth : 720 pixelsHeight : 416 pixelsDisplay aspect ratio : 1.731Frame rate : 25.000 fpsColor space : YUVChroma subsampling : 4:2:0Bit depth : 8 bitsScan type : ProgressiveCompression mode : LossyBits/(Pixel*Frame) : 0.319Stream size : 300 MiB (92%)Writing library : XviD 64
AudioID : 1Format : MPEG AudioFormat version : Version 1Format profile : Layer 3Mode : Joint stereoMode extension : MS StereoCodec ID : 55Codec ID/Hint : MP3Duration : 17mn 33sBit rate mode : ConstantBit rate : 192 KbpsChannel(s) : 2 channelsSampling rate : 48.0 KHzCompression mode : LossyStream size : 24.1 MiB (7%)Alignment : Aligned on interleavesInterleave, duration : 24 ms (0.60 video frame)Interleave, preload duration : 24 msWriting library : LAME3.99.5
Скриншоты
Скачать

Скачать торрент!

Как скачивать? · Что такое торрент? · Рейтинг и ограничения

Сайт не распространяет и не хранит электронные версии произведений, а лишь предоставляет доступ к создаваемому пользователями каталогу ссылок на торрент-файлы, которые содержат только списки хеш-сумм

[Профиль] [ЛС]
Показать сообщения:    
Ответить на тему

Текущее время: Сегодня 20:34

Часовой пояс: GMT + 4



Вы не можете начинать темы
Вы не можете отвечать на сообщения
Вы не можете редактировать свои сообщения
Вы не можете удалять свои сообщения
Вы не можете голосовать в опросах
Вы не можете прикреплять файлы к сообщениям
Вы не можете скачивать файлы