Бог азартных игроков / Игрок от бога / Бог азартных игр / Бог игроков / Игорный бог / God of Gamblers / Du shen (Джин Вонг / Jing Wong) [1989, Гонконг, боевик, драма, BDRip] DVO (Эльром) + 3xAVO (Карповский, Живов, Дольский)

Ответить на тему
 
Автор Сообщение

user ®

Стаж: 13 лет

Сообщений: 15071

Пост Пост: #1 от 24-Окт-2015 15:00

[Цитировать]

Бог азартных игроков / Игрок от бога / Бог азартных игр / Бог игроков / Игорный бог / Du shen / God of Gamblers

Страна: Гонконг
Жанр: драма, комедия
Год выпуска: 1989
Продолжительность: 02:06:19
Перевод: Профессиональный (двухголосый закадровый) - Ульпаней Эльром
Перевод: Авторский (одноголосый закадровый) - Антон Карповский
Перевод: Авторский (одноголосый закадровый) - Юрий Живов
Перевод: Авторский (одноголосый закадровый) - Андрей Дольский
Cубтитры: нет

Режиссер: Джин Вонг / Jing Wong
В ролях: Чоу Юнь-Фат, Чарльз Хеунг, Энди Лау, Джои Ван, Фонг Ланг, Фуй-Он Син, Mэн Чунг, Мэн Тат ЭнДжи, Хон Лам Пау, Деннис Чан
Описание: Главного героя зовут просто Ко Чунь, но вот в мире азартных игр его уже много лет называют не иначе как «Бог азартных игроков». Он никогда не проигрывает, карты в его руках ведут себя словно живые, а игральные кости способны творить настоящие чудеса. Он знает, как выпадут кости даже просто слушая их стук в игральном кубке…
Однажды Ко Чунь попадает в чужую ловушку и из-за полученных травм лишается памяти. Подобравший его на дороге мелкий шулер по кличке Нож обнаруживает у пострадавшего способности к азартным играм, которыми сразу же решает воспользоваться… Однако Ко Чунь, получивший травму, хоть и не лишается своих феноменальных способностей, во всем остальном начинает вести себя как маленький ребенок — плачет по пустякам, требует шоколадку…

Качество видео: [url=http://***/forum/viewtopic.php?t=5085990]BDRip[/url]
Формат видео: AVI
Видео: 720x400 (1.80:1), 24 fps, XviD build 73 ~1385 kbps avg, 0.20 bit/pixel
Аудио: 48 kHz, AC3 Dolby Digital, 2/0 (L,R) ch, ~256 kbps - Элром
отдельными файлами:
Аудио: 48 kHz, AC3 Dolby Digital, 3/2 (L,C,R,l,r) + LFE ch, ~448 kbps - Карповский
Аудио: 48 kHz, AC3 Dolby Digital, 3/2 (L,C,R,l,r) + LFE ch, ~448 kbps - Живов
Аудио: 48 kHz, AC3 Dolby Digital, 3/2 (L,C,R,l,r) + LFE ch, ~448 kbps - Дольский


Сравнение
[url=http://***/forum/viewtopic.php?t=393524]http://***/forum/viewtopic.php?t=393524[/url] - Эльром
http://screenshotcomparison.com/comparison/148092
[url=http://***/forum/viewtopic.php?t=139611]http://***/forum/viewtopic.php?t=139611[/url] - Живов
http://screenshotcomparison.com/comparison/148065
MediaInfo
Общее
Полное имя : H:\God.of.Gamblers.1989.bdrip_[1.46]_[teko]\God.of.Gamblers.1989.bdrip_[1.46].avi
Формат : AVI
Формат/Информация : Audio Video Interleave
Размер файла : 1,46 Гбайт
Продолжительность : 2 ч. 6 м.
Общий поток : 1651 Кбит/сек
Программа кодирования : VirtualDubMod 1.5.10.3 | www.virtualdub-fr.org || (build 2550/release)
Библиотека кодирования : VirtualDubMod build 2550/release
Видео
Идентификатор : 0
Формат : MPEG-4 Visual
Профиль формата : Advanced Simple@L5
Параметр BVOP формата : 1
Параметр QPel формата : Нет
Параметр GMC формата : Без точки перехода
Параметр матрицы формата : Выборочная
Идентификатор кодека : XVID
Идентификатор кодека/Подсказка : XviD
Продолжительность : 2 ч. 6 м.
Битрейт : 1385 Кбит/сек
Ширина : 720 пикселей
Высота : 400 пикселей
Соотношение сторон : 16:9
Частота кадров : 24,000 кадра/сек
Цветовое пространство : YUV
Субдискретизация насыщенности : 4:2:0
Битовая глубина : 8 бит
Тип развёртки : Прогрессивная
Метод сжатия : С потерями
Бит/(Пиксели*Кадры) : 0.200
Размер потока : 1,22 Гбайт (84%)
Библиотека кодирования : XviD 73
Аудио
Идентификатор : 1
Формат : AC-3
Формат/Информация : Audio Coding 3
Расширение режима : CM (complete main)
Параметр Endianness формата : Big
Идентификатор кодека : 2000
Продолжительность : 2 ч. 6 м.
Вид битрейта : Постоянный
Битрейт : 256 Кбит/сек
Каналы : 2 канала
Расположение каналов : Front: L R
Частота : 48,0 КГц
Битовая глубина : 16 бит
Метод сжатия : С потерями
Размер потока : 231 Мбайт (16%)
Выравнивание : Разделение по промежуткам
Продолжительность промежутка : 42 мс. (1,00 видеокадр)
Время предзагрузки промежутка : 500 мс.
Скриншоты Релиз группы:
[url=http://***/forum/viewtopic.php?t=1677970] [/url]
--
Скачать

Скачать торрент! Бог азартных игроков / Игрок от бога / Бог азартных игр / Бог игроков / Игорный бог / God of Gamblers / Du shen (Джин Вонг / Jing Wong) [1989, Гонконг, боевик, драма, BDRip] DVO (Эльром) + 3xAVO (Карповский, Живов, Дольский)

Как скачивать? · Что такое торрент? · Рейтинг и ограничения

Сайт не распространяет и не хранит электронные версии произведений, а лишь предоставляет доступ к создаваемому пользователями каталогу ссылок на торрент-файлы, которые содержат только списки хеш-сумм

[Профиль] [ЛС]
Показать сообщения:    
Ответить на тему

Текущее время: Сегодня 20:40

Часовой пояс: GMT + 4



Вы не можете начинать темы
Вы не можете отвечать на сообщения
Вы не можете редактировать свои сообщения
Вы не можете удалять свои сообщения
Вы не можете голосовать в опросах
Вы не можете прикреплять файлы к сообщениям
Вы не можете скачивать файлы