Пленительная тень / The Enchanting Shadow / Ching Nu Yu Hun (Ли Хан-Сян / Li Han-Hsiang) [1960, Гонконг, Мистика, DVDRip] VO (Shangu)

Ответить на тему
 
Автор Сообщение

user ®

Стаж: 13 лет

Сообщений: 15071

Пост Пост: #1 от 21-Окт-2015 12:36

[Цитировать]

Пленительная тень / The Enchanting Shadow / 倩女幽魂-- Страна: Гонконг |
Жанр: Мистика
Студия: Shaw Brothers
Год выпуска: 1960
Продолжительность: 01:19:23
Озвучивание: Одноголосый закадровый Shangu
Перевод: [url=http://***/forum/profile.php?mode=viewprofile&u=1054149]Kasablanka[/url]
Cубтитры: нет
Оригинальная аудиодорожка: нет
Режиссёр: Ли Хан-Сян / Li Han-Hsiang
В ролях: Чао Лей, Бетти Ло, Тонг Юк-Чинг, Юнг Чи-Хинг, Вонг Юэт-Тинг, Гам Тин-Чу, Лай Ман, Лан Вей-Лье, Ли Кван, Ли Куо-Хуа, Лок Кей, Ман Сау, Су Чианг, Фунг Нгай, Хао Ли-Джен, Хунг Мей, Чеунг Сек-Ау, Чеунг Хей, Чин Чун, Ли Куо-Хуа-Описание: Молодой учёный Нин Сай Чен (Чжао Лэй) идёт в столицу, чтобы поучаствовать там в сдаче государственного экзамена. По пути он останавливается в заброшенном храме, о котором ходит дурная слава. На ночь в нём остаётся лишь он один и странствующий воитель Ен Чы Ся (Юн Чи-Хин), однако с наступлением темноты герой узнаёт, что на заднем дворе тоже есть жизнь – там живёт печальная девушка Сяо Цень (Бетти Ло Ти). Они нравятся друг другу с первого взгляда, но злобная бабушка, у которой живёт прекрасная незнакомка, недовольна тем, что у них гости. А на следующий день учёный узнаёт, что это были привидения, а задний двор храма заброшен вот уже десять лет. [от AKIRA]
Фильм «Пленительная тень» (1960, реж. Ли Ханьсян) был включён в официальную конкурсную программу 13-го Каннского кинофестиваля, став тем самым первым цветным фильмом на путунхуа в основном показе крупных международных кинофестивалей, а также был отобран в качестве гонконгского кандидата на «Оскар» за лучший фильм на иностранном языке, но не вошёл в шорт-лист номинации.
Это кино является оригинальной версией всем известной "Китайской истории о призраках". Одна из первых картин студии Шао Бразерс в цвете. Стоит выделить очень хорошо проделанную работу со светом(особенно для того времени), а красивые декорации и мистическая музыка создают атмосферу, что больше всего присуща советским сказкам.
Доп. информация: Релиз-группа -Сэмпл: https://yadi.sk/i/lbBATO1UjsoSA
Качество видео: DVDRip (исходник - ремастированный DVD9)
Формат видео: AVI
Видео: Video: 720x544 (1.32:1), 29.970 fps, XviD build 50 ~2265 kbps avg, 0.19 bit/pixel
Аудио: Audio: 48 kHz, MPEG Layer 3, 2 ch, ~192.00 kbps avg
MediaInfo
Общее
Полное имя : The Enchanting Shadow (1960).avi
Формат : AVI
Формат/Информация : Audio Video Interleave
Размер файла : 1,37 Гбайт
Продолжительность : 1 ч. 19 м.
Общий поток : 2466 Кбит/сек
Программа кодирования : VirtualDubMod 1.5.4.1 (build 2178/release)
Библиотека кодирования : VirtualDubMod build 2178/release
Видео
Идентификатор : 0
Формат : MPEG-4 Visual
Профиль формата : Advanced Simple@L5
Параметр BVOP формата : 1
Параметр QPel формата : Нет
Параметр GMC формата : Без точки перехода
Параметр матрицы формата : Выборочная
Идентификатор кодека : XVID
Идентификатор кодека/Подсказка : XviD
Продолжительность : 1 ч. 19 м.
Битрейт : 2265 Кбит/сек
Ширина : 720 пикселей
Высота : 544 пикселя
Соотношение сторон : 4:3
Частота кадров : 29,970 кадров/сек
Цветовое пространство : YUV
Субдискретизация насыщенности : 4:2:0
Битовая глубина : 8 бит
Тип развёртки : Прогрессивная
Метод сжатия : С потерями
Бит/(Пиксели*Кадры) : 0.193
Размер потока : 1,26 Гбайт (92%)
Библиотека кодирования : XviD 1.2.1 (UTC 2008-12-04)
Аудио
Идентификатор : 1
Формат : MPEG Audio
Версия формата : Version 1
Профиль формата : Layer 3
Режим : Joint stereo
Расширение режима : MS Stereo
Идентификатор кодека : 55
Идентификатор кодека/Подсказка : MP3
Продолжительность : 1 ч. 19 м.
Вид битрейта : Постоянный
Битрейт : 192 Кбит/сек
Каналы : 2 канала
Частота : 48,0 КГц
Метод сжатия : С потерями
Размер потока : 109 Мбайт (8%)
Выравнивание : Соединение по промежуткам
Продолжительность промежутка : 67 мс. (2,00 видеокадра)
Время предзагрузки промежутка : 504 мс.
Библиотека кодирования : LAME3.98r
Настройки программы : -m j -V 4 -q 2 -lowpass 18.6 -b 192
Язык : Russian
Скриншот c названием фильма Скриншоты Подробнее о фильме Обложки, постеры, обои
Скачать

Скачать торрент! Пленительная тень / The Enchanting Shadow / Ching Nu Yu Hun (Ли Хан-Сян / Li Han-Hsiang) [1960, Гонконг, Мистика, DVDRip] VO (Shangu)

Как скачивать? · Что такое торрент? · Рейтинг и ограничения

Сайт не распространяет и не хранит электронные версии произведений, а лишь предоставляет доступ к создаваемому пользователями каталогу ссылок на торрент-файлы, которые содержат только списки хеш-сумм

[Профиль] [ЛС]
Показать сообщения:    
Ответить на тему

Текущее время: Сегодня 16:14

Часовой пояс: GMT + 4



Вы не можете начинать темы
Вы не можете отвечать на сообщения
Вы не можете редактировать свои сообщения
Вы не можете удалять свои сообщения
Вы не можете голосовать в опросах
Вы не можете прикреплять файлы к сообщениям
Вы не можете скачивать файлы