Преступление лорда Артура Сэвила (Марианна Новогрудская) [1991, Кукольный мультфильм, VHSRip]

Ответить на тему
 
Автор Сообщение

user ®

Стаж: 7 лет 7 месяцев

Сообщений: 20008

Пост Пост: #1 от 19-Окт-2015 23:24

[Цитировать]

Преступление лорда Артура Сэвила
Страна: СССР
Жанр: Кукольный мультфильм
Продолжительность: 00:10:04
Год выпуска: 1991
Русские субтитры: нет
Режиссёр: Марианна Новогрудская
Роли озвучивали: В.Абдулов,А.Лущик,Л.Ильина,Р.Суховерко
Описание: По мотивам одноименной новеллы Оскара Уайльда. Лорду Артуру Сэвилу "звезда хиромантии" мистер Поджерс предсказал совершение убийства. Потрясенный лорд Артур решил во что бы то ни стало совершить его до своей свадьбы, которая должна состояться в ближайший четверг...
Доп. информация: «Союзтелефильм»
сценарий И.Марголина
оператор Е.Туревич
композитор И.Ефремов
художник Ю.Оралова
Раздача группы:
Качество: VHSRip
Формат: AVI
Видео: 720x544 (1.32:1), 25 fps, XviD build 50 ~2286 kbps avg, 0.23 bit/pixel
Аудио: 48 kHz, MPEG Layer 3, 1 ch, ~96.00 kbps avg
Субтитры: нет
Подробные технические данные
Format : AVIFormat/Info : Audio Video InterleaveFile size : 172 MiBDuration : 10mn 4sOverall bit rate : 2 392 KbpsWriting application : VirtualDubMod 1.5.10.3 | www.virtualdub-fr.org || (build 2550/release)Writing library : VirtualDubMod build 2550/release
VideoID : 0Format : MPEG-4 VisualFormat profile : Advanced Simple@L5Format settings, BVOP : 2Format settings, QPel : NoFormat settings, GMC : No warppointsFormat settings, Matrix : Default (H.263)Codec ID : XVIDCodec ID/Hint : XviDDuration : 10mn 4sBit rate : 2 286 KbpsWidth : 720 pixelsHeight : 544 pixelsDisplay aspect ratio : 4:3Frame rate : 25.000 fpsColor space : YUVChroma subsampling : 4:2:0Bit depth : 8 bitsScan type : ProgressiveCompression mode : LossyBits/(Pixel*Frame) : 0.233Stream size : 165 MiB (96%)Writing library : XviD 1.2.1 (UTC 2008-12-04)
AudioID : 1Format : MPEG AudioFormat version : Version 1Format profile : Layer 3Codec ID : 55Codec ID/Hint : MP3Duration : 10mn 4sBit rate mode : ConstantBit rate : 96.0 KbpsChannel(s) : 1 channelSampling rate : 48.0 KHzCompression mode : LossyStream size : 6.92 MiB (4%)Alignment : Aligned on interleavesInterleave, duration : 40 ms (1.00 video frame)Interleave, preload duration : 504 ms
Скриншоты
Скачать

Скачать торрент!

Как скачивать? · Что такое торрент? · Рейтинг и ограничения

Сайт не распространяет и не хранит электронные версии произведений, а лишь предоставляет доступ к создаваемому пользователями каталогу ссылок на торрент-файлы, которые содержат только списки хеш-сумм

[Профиль] [ЛС]
Показать сообщения:    
Ответить на тему

Текущее время: Сегодня 07:52

Часовой пояс: GMT + 4



Вы не можете начинать темы
Вы не можете отвечать на сообщения
Вы не можете редактировать свои сообщения
Вы не можете удалять свои сообщения
Вы не можете голосовать в опросах
Вы не можете прикреплять файлы к сообщениям
Вы не можете скачивать файлы