Перехитрить судьбу / Dharam Karam (Рандхир Капур / Randhir Kapoor) [1975, Индия, Мелодрама, DVDRip] MVO (Формат АВ)

Ответить на тему
 
Автор Сообщение

user ®

Стаж: 12 лет

Сообщений: 15092

Пост Пост: #1 от 07-Окт-2015 20:18

[Цитировать]

Перехитрить судьбу / Dharam Karam
Страна: Индия
Жанр: Мелодрама
Год выпуска: 1975
Продолжительность: 02.41.04
Перевод: Профессиональный (многоголосый закадровый) Формат АВ
Cубтитры: нет
Оригинальная аудиодорожка: хинди
Режиссер: Рандхир Капур / Randhir Kapoor
В ролях: Радж Капур, Рандхир Капур, Рекха, Прем Нат, Дара Сингх, Пинчу Капур, Нарендра Натх, Урмила Бхатт, Алка, Сатьяджит
Описание: Преступник Шанкар подменил своего новорожденного сына на сына знаменитого певца Ашока. Шанкар надеялся, что таким образом его сыну удастся вырваться из нищеты и сетей мафии. Однако все вышло совсем не так, как он планировал. Новоиспеченный сын Шанкара Дхарам, несмотря на все усилия папаши научить его бандитскому ремеслу, все-таки увлекся музыкой. А вот Ранджит, окруженный с рождения музыкой и богатствами, все равно потянулся в криминальную среду. И вновь незадачливый папаша Шанкар решил изменить судьбу своего брошенного сынка...
Доп. информация: Рип найден в сети - Спасибо зарубежным друзьям.
За основу взят звук из раздачи .:Misa-Misa:. - Спасибо!
Синхронизация аудиодорожки под данный рип - Aleksgreek.
Аудиодорожку немного подкорректировал (синхронизация), почти совпала. Фильм с элементами юмора, немного "театрализован", но смотрится хорошо. Есть очень "сильные" места, к примеру на 02.18.40. В течении одной минуты показана вся жизнь человека.
Любимые актёры! Надеюсь, кого-то порадует этот фильм с отличной картинкой.
Релиз-группа:
Данный формат (MKV) воспроизводится не всеми бытовыми проигрывателями.
Сэмпл: http://sendfile.su/1147016
Качество видео: DVDRip
Формат видео: MKV
Видео: AVC, 640Х480, 4:3, 23.976 fps, 906 Kbps
Аудио: AC3, 48 KHz, 192 Kbps, 2 channels, русский
Аудио 2: AC3, 48 KHz, 192 Kbps, 2 channels, хинди
MediaInfo
Format : Matroska
Format version : Version 2
File size : 1.45 GiB
Duration : 2h 41mn
Overall bit rate : 1 291 Kbps
Encoded date : UTC 2015-08-11 19:53:51
Writing application : mkvmerge v5.7.0 ('The Whirlwind') built on Jul 8 2012 20:08:51
Writing library : libebml v1.2.3 + libmatroska v1.3.0
Video
ID : 1
Format : AVC
Format/Info : Advanced Video Codec
Format profile : High@L3.1
Format settings, CABAC : Yes
Format settings, ReFrames : 8 frames
Codec ID : V_MPEG4/ISO/AVC
Duration : 2h 41mn
Bit rate : 906 Kbps
Width : 640 pixels
Height : 480 pixels
Display aspect ratio : 4:3
Frame rate : 23.976 fps
Color space : YUV
Chroma subsampling : 4:2:0
Bit depth : 8 bits
Scan type : Progressive
Bits/(Pixel*Frame) : 0.123
Stream size : 1 015 MiB (68%)
Writing library : x264 core 142 r2453 ea0ca51
Encoding settings : cabac=1 / ref=8 / deblock=1:0:0 / analyse=0x3:0x133 / me=umh / subme=9 / psy=1 / psy_rd=1.00:0.00 / mixed_ref=1 / me_range=16 / chroma_me=1 / trellis=2 / 8x8dct=1 / cqm=0 / deadzone=21,11 / fast_pskip=0 / chroma_qp_offset=-2 / threads=6 / lookahead_threads=1 / sliced_threads=0 / nr=1000 / decimate=1 / interlaced=0 / bluray_compat=0 / constrained_intra=0 / bframes=3 / b_pyramid=2 / b_adapt=2 / b_bias=0 / direct=3 / weightb=1 / open_gop=0 / weightp=2 / keyint=250 / keyint_min=23 / scenecut=40 / intra_refresh=0 / rc_lookahead=60 / rc=2pass / mbtree=1 / bitrate=906 / ratetol=1.0 / qcomp=0.60 / qpmin=0 / qpmax=69 / qpstep=4 / cplxblur=20.0 / qblur=0.5 / ip_ratio=1.40 / aq=1:1.00
Audio #1
ID : 2
Format : AC-3
Format/Info : Audio Coding 3
Mode extension : CM (complete main)
Muxing mode : Header stripping
Codec ID : A_AC3
Duration : 2h 41mn
Bit rate mode : Constant
Bit rate : 192 Kbps
Channel(s) : 2 channels
Channel positions : Front: L R
Sampling rate : 48.0 KHz
Bit depth : 16 bits
Compression mode : Lossy
Stream size : 221 MiB (15%)
Language : Russian
Audio #2
ID : 3
Format : AC-3
Format/Info : Audio Coding 3
Mode extension : CM (complete main)
Muxing mode : Header stripping
Codec ID : A_AC3
Duration : 2h 41mn
Bit rate mode : Constant
Bit rate : 192 Kbps
Channel(s) : 2 channels
Channel positions : Front: L R
Sampling rate : 48.0 KHz
Bit depth : 16 bits
Compression mode : Lossy
Stream size : 221 MiB (15%)
Language : Hindi
Скриншот c названием фильма Скриншоты Сравнение
Сравнение с раздачей: [url=http://***/forum/viewtopic.php?t=1944255]http://***/forum/viewtopic.php?t=1944255[/url]
MKV - ЗДЕСЬ:

AVI - ТАМ:
Скачать

Скачать торрент! Перехитрить судьбу / Dharam Karam (Рандхир Капур / Randhir Kapoor) [1975, Индия, Мелодрама, DVDRip] MVO (Формат АВ)

Как скачивать? · Что такое торрент? · Рейтинг и ограничения

Сайт не распространяет и не хранит электронные версии произведений, а лишь предоставляет доступ к создаваемому пользователями каталогу ссылок на торрент-файлы, которые содержат только списки хеш-сумм

[Профиль] [ЛС]
Показать сообщения:    
Ответить на тему

Текущее время: Сегодня 12:50

Часовой пояс: GMT + 4



Вы не можете начинать темы
Вы не можете отвечать на сообщения
Вы не можете редактировать свои сообщения
Вы не можете удалять свои сообщения
Вы не можете голосовать в опросах
Вы не можете прикреплять файлы к сообщениям
Вы не можете скачивать файлы