Дракон из Шаолиня / Long zai Shaolin / Dragon in Shaolin / Dragon From Shaolin (Кенни Ха / Kenny Ha) [1996, Гонконг, Тайвань, боевик, приключения, боевые искусства, комедия, TVRip] Sub Rus

Ответить на тему
 
Автор Сообщение

user ®

Стаж: 13 лет

Сообщений: 15071

Пост Пост: #1 от 07-Окт-2015 01:45

[Цитировать]

Дракон из Шаолиня / Long zai Shaolin / Dragon in Shaolin / Dragon From Shaolin
Страна: Гонконг, Тайвань
Жанр: боевик, приключения, боевые искусства, комедия
Год выпуска: 1996
Продолжительность: 01:29:18
Перевод: Субтитры Roaring_Lion
Cубтитры: русские
Оригинальная аудиодорожка: Китайская
Режиссер: Кенни Ха / Kenny Ha
В ролях: Юэнь Бяо, Сик Сиу-Лунг, Томми Шик, Рональд Квок, Вивиан Хсу, Ван Мавань, Сюй Цзинь Цзян, Вай Ин Хун, Ло Ка Ин
Описание: Маленький послушник Шаолиня достиг большого прогресса в боевых искусствах, но совершенно не знает мира, куда его и отправляет в поисках «сердца Будды» его наставник, дав ему в подручные двух монахов постарше. В большом современном Гонконге мальчишка сразу же теряет своих провожатых и, познакомившись с уличным воришкой своего же возраста, прицепляется к путешествующему герою Юэня Бьяо, который никак не может решить свои проблемы с братом — бестолковым скупщиком редких вещей.
Сэмпл: https://yadi.sk/d/tlFT58A1jVaw6
Качество видео: TVRip
Формат видео: MP4
Видео: AVC, 720x480, 5:3, 23.976 fps, 1000 kbps
Аудио: AAC, 48.0 kHz, 128 kbps, L + R
Формат субтитров: softsub (SSA/ASS)
Доп. информация о субтитрах: ASS RULEZZZ
MediaInfo
General
Complete name : D:\Фильмы\Дракон из Шаолиня 2.mp4
Format : MPEG-4
Format profile : Base Media
Codec ID : isom
File size : 724 MiB
Duration : 1h 29mn
Overall bit rate : 1 133 Kbps
Writing application : Lavf55.33.100
Video
ID : 1
Format : AVC
Format/Info : Advanced Video Codec
Format profile : High@L3.0
Format settings, CABAC : Yes
Format settings, ReFrames : 4 frames
Codec ID : avc1
Codec ID/Info : Advanced Video Coding
Duration : 1h 29mn
Bit rate : 1 000 Kbps
Width : 720 pixels
Height : 480 pixels
Display aspect ratio : 1.666
Original display aspect ratio : 1.667
Frame rate mode : Constant
Frame rate : 23.976 fps
Standard : NTSC
Color space : YUV
Chroma subsampling : 4:2:0
Bit depth : 8 bits
Scan type : Progressive
Bits/(Pixel*Frame) : 0.121
Stream size : 639 MiB (88%)
Writing library : x264 core 142 r2431 ac76440
Encoding settings : cabac=1 / ref=3 / deblock=1:0:0 / analyse=0x3:0x113 / me=hex / subme=7 / psy=1 / psy_rd=1.00:0.00 / mixed_ref=1 / me_range=16 / chroma_me=1 / trellis=1 / 8x8dct=1 / cqm=0 / deadzone=21,11 / fast_pskip=1 / chroma_qp_offset=-2 / threads=6 / lookahead_threads=1 / sliced_threads=0 / nr=0 / decimate=1 / interlaced=0 / bluray_compat=0 / constrained_intra=0 / bframes=3 / b_pyramid=2 / b_adapt=1 / b_bias=0 / direct=1 / weightb=1 / open_gop=0 / weightp=2 / keyint=250 / keyint_min=23 / scenecut=40 / intra_refresh=0 / rc_lookahead=40 / rc=2pass / mbtree=1 / bitrate=1000 / ratetol=1.0 / qcomp=0.60 / qpmin=0 / qpmax=69 / qpstep=4 / cplxblur=20.0 / qblur=0.5 / ip_ratio=1.40 / aq=1:1.00
Audio
ID : 2
Format : AAC
Format/Info : Advanced Audio Codec
Format profile : LC
Codec ID : 40
Duration : 1h 29mn
Duration_LastFrame : -1ms
Bit rate mode : Constant
Bit rate : 128 Kbps
Channel(s) : 2 channels
Channel positions : Front: L R
Sampling rate : 48.0 KHz
Compression mode : Lossy
Delay relative to video : 83ms
Stream size : 81.8 MiB (11%)
Скриншот c названием фильма Скриншоты
Скачать

Скачать торрент! Дракон из Шаолиня / Long zai Shaolin / Dragon in Shaolin / Dragon From Shaolin (Кенни Ха / Kenny Ha) [1996, Гонконг, Тайвань, боевик, приключения, боевые искусства, комедия, TVRip] Sub Rus

Как скачивать? · Что такое торрент? · Рейтинг и ограничения

Сайт не распространяет и не хранит электронные версии произведений, а лишь предоставляет доступ к создаваемому пользователями каталогу ссылок на торрент-файлы, которые содержат только списки хеш-сумм

[Профиль] [ЛС]
Показать сообщения:    
Ответить на тему

Текущее время: Сегодня 17:35

Часовой пояс: GMT + 4



Вы не можете начинать темы
Вы не можете отвечать на сообщения
Вы не можете редактировать свои сообщения
Вы не можете удалять свои сообщения
Вы не можете голосовать в опросах
Вы не можете прикреплять файлы к сообщениям
Вы не можете скачивать файлы