Удан / Wu Dang / Da Wu Dang zhi tian di mi ma (Патрик Лун / Patrick Leung) [2012, Гонконг, Китай, боевик, приключения, HDTVRip] VO (mi24) + original Chin + Sub (rus, eng)

Ответить на тему
 
Автор Сообщение

user ®

Стаж: 13 лет

Сообщений: 15071

Пост Пост: #1 от 05-Окт-2015 15:42

[Цитировать]

Удан / Wu Dang / Da Wu Dang zhi tian di mi ma- -Страна: Гонконг, Китай
Жанр: боевик, приключения
Год выпуска: 2012
Продолжительность: 01:40:25-Перевод: Одноголосый закадровый (mi24)-Cубтитры: русские, английские [отдельно]
Оригинальная аудиодорожка: китайский
Режиссер: Патрик Лун / Patrick Leung
В ролях: Вэньчжо Чжао, Ми Ян, Фан Сю-Вонг, Ю-Ханг То, Цзяо Сюй, Хи Чинг Пав, Шон Там...
Описание: Во времена становления Китайской Республики распространились слухи о том, что на горе Удан спрятано сокровище. Американский заговорщик задумал его похитить, и он со своей дочерью, хорошо владеющей кунг-фу, отправляется туда под видом спонсора турнира по даосским боевым искусствам. Неожиданно на турнире появляется ученик, представляющий Удан, желающий сразиться с мастерами за звание чемпиона. Во время соревнований между различными сторонами начинаются распри, и отношения усложняются. Тем временем кореянка, потомок мастеров Тай Цзы, влюбляется в американского заговорщика и раскрывает секрет спрятанного сокровища. Сокровище это основа магнитного поля горы Удан, и если его похитить, то она будет уничтожена. Чтобы защитить Удан, молодые герои объединяются, намереваясь победить великих мастеров. Пришло время восстановить давно утерянные боевые искусства Удана…
Релиз от -
Сэмпл: http://multi-up.com/1069231
Качество видео: HDTVRip
Формат видео: AVI
Видео: MPEG-4 Visual at 2393 Кбит/сек; 720 x 304 (2.368) at 24.000 fps
Аудио: AC-3 at 192 Кбит/сек; 2 канала, 48,0 КГц [VO]
Аудио: AC-3 at 448 Кбит/сек; 6 каналов, 48,0 КГц [Chin]
Автор -
MediaInfo
Общее
Полное имя : D:\Фильмы\Азиатские\Удан\Wu Dang.2012.HDRip.XviD.2200MB. rip by [Assassin's Creed]\Wu Dang.2012.HDRip.XviD.2200MB. rip by [Assassin's Creed].avi
Формат : AVI
Формат/Информация : Audio Video Interleave
Профиль формата : OpenDML
Размер файла : 2,14 Гбайт
Продолжительность : 1 ч. 40 м.
Общий поток : 3051 Кбит/сек
Программа кодирования : VirtualDubMod 1.5.10.3 | www.virtualdub-fr.org || (build 2550/release)
Библиотека кодирования : VirtualDubMod build 2550/release
Видео
Идентификатор : 0
Формат : MPEG-4 Visual
Профиль формата : Advanced Simple@L5
Параметр BVOP формата : 1
Параметр QPel формата : Нет
Параметр GMC формата : Без точки перехода
Параметр матрицы формата : Default (MPEG)
Идентификатор кодека : XVID
Идентификатор кодека/Подсказка : XviD
Продолжительность : 1 ч. 40 м.
Битрейт : 2393 Кбит/сек
Ширина : 720 пикселей
Высота : 304 пикселя
Соотношение сторон : 2,35:1
Частота кадров : 24,000 кадра/сек
Цветовое пространство : YUV
Субдискретизация насыщенности : 4:2:0
Битовая глубина : 8 бит
Тип развёртки : Прогрессивная
Метод сжатия : С потерями
Бит/(Пиксели*Кадры) : 0.456
Размер потока : 1,68 Гбайт (78%)
Библиотека кодирования : XviD 1.2.1 (UTC 2008-12-04)
Аудио #1
Идентификатор : 1
Формат : AC-3
Формат/Информация : Audio Coding 3
Расширение режима : CM (complete main)
Параметр Endianness формата : Big
Идентификатор кодека : 2000
Продолжительность : 1 ч. 40 м.
Вид битрейта : Постоянный
Битрейт : 192 Кбит/сек
Каналы : 2 канала
Расположение каналов : Front: L R
Частота : 48,0 КГц
Метод сжатия : С потерями
Размер потока : 138 Мбайт (6%)
Выравнивание : Разделение по промежуткам
Продолжительность промежутка : 42 мс. (1,00 видеокадр)
Время предзагрузки промежутка : 500 мс.
Аудио #2
Идентификатор : 2
Формат : AC-3
Формат/Информация : Audio Coding 3
Расширение режима : CM (complete main)
Параметр Endianness формата : Big
Идентификатор кодека : 2000
Продолжительность : 1 ч. 40 м.
Вид битрейта : Постоянный
Битрейт : 448 Кбит/сек
Каналы : 6 каналов
Расположение каналов : Front: L C R, Side: L R, LFE
Частота : 48,0 КГц
Метод сжатия : С потерями
Размер потока : 322 Мбайт (15%)
Выравнивание : Разделение по промежуткам
Продолжительность промежутка : 42 мс. (1,00 видеокадр)
Время предзагрузки промежутка : 500 мс.
Скриншот c названием фильма Скриншоты
Скачать

Скачать торрент! Удан / Wu Dang / Da Wu Dang zhi tian di mi ma (Патрик Лун / Patrick Leung) [2012, Гонконг, Китай, боевик, приключения, HDTVRip] VO (mi24) + original Chin + Sub (rus, eng)

Как скачивать? · Что такое торрент? · Рейтинг и ограничения

Сайт не распространяет и не хранит электронные версии произведений, а лишь предоставляет доступ к создаваемому пользователями каталогу ссылок на торрент-файлы, которые содержат только списки хеш-сумм

[Профиль] [ЛС]
Показать сообщения:    
Ответить на тему

Текущее время: Сегодня 16:34

Часовой пояс: GMT + 4



Вы не можете начинать темы
Вы не можете отвечать на сообщения
Вы не можете редактировать свои сообщения
Вы не можете удалять свои сообщения
Вы не можете голосовать в опросах
Вы не можете прикреплять файлы к сообщениям
Вы не можете скачивать файлы